COVID-19 - Последняя информация о коронавирусе на сайте Минздрава




Торрент файл
скачать торрент магнет ссылка Добавлен: 01 июл 2019, 20:31
Размер: 4.37 ГБ
Сидеров: 2
Личеров: 0
Статус: (salma3)
Автор

СообщениеДобавлено: 01 июл 2019, 20:31 

Информация о фильме
Название: Неисправимый Гуфи (Экстремальный спорт)
Оригинальное название: An Extremely Goofy Movie
Год выпуска: 2000
Жанр: Мультфильм, комедия, семейный, спорт, полнометражный
Выпущено: США, Австралия, Walt Disney Pictures
Режиссер: Дуглас МакКарти
В ролях: Билл Фармер, Джейсон Мэрсден, Джефф Беннетт, Джим Каммингс, Брэд Гэррет, Викки Льюис, Биби Нойуэрт, Роб Полсен, Поли Шор, Пэдди Эдвардс

О фильме: Гуфи потерял работу и решил, что без диплома колледжа другую работу ему не получить. Поэтому он появляется в колледже своего сына, у которого все было так хорошо до приезда отца. Но планы Гуфи срываются, а отношения с сыном подвергаются серьезному испытанию.



Продолжительность: 01:19:06
Перевод: Дублированный, профессиональный многоголосый, авторский
Субтитры: Русские, английские

Файл
Качество: BDRip (1080p)
Видео: MPEG-4 AVC, 6702 Кбит/с, 1920x1080
Аудио #1: Русский (AC3, 2 ch, 192 Кбит/с) - Дублированный
Аудио #2: Русский (AC3, 6 ch, 384 Кбит/с) - Профессиональный многоголосый
Аудио #3: Русский (AC3, 2 ch, 192 Кбит/с) - Авторский одноголосый (Живов)
Аудио #4: Английский (AC3, 4 ch, 448 Кбит/с) - Оригинал

Формат : Matroska
Версия формата : Version 2
Размер файла : 4,37 Гбайт
Продолжительность : 1 ч. 19 м.
Общий поток : 7913 Кбит/сек
Название фильма : ~V ad~
Дата кодирования : UTC 2019-05-17 07:19:56
Программа кодирования : mkvmerge v6.5.0 ('Isn't she lovely') built on Oct 20 2013 12:50:05
Библиотека кодирования : libebml v1.3.0 + libmatroska v1.4.1
Обложка : Yes
Attachments : cover.jpg

Видео
Идентификатор : 1
Формат : AVC
Формат/Информация : Advanced Video Codec
Профиль формата : High@L4.1
Настройки формата : CABAC / 4 Ref Frames
Параметр CABAC формата : Да
Параметр RefFrames формата : 4 кадра
Идентификатор кодека : V_MPEG4/ISO/AVC
Продолжительность : 1 ч. 19 м.
Битрейт : 6702 Кбит/сек
Ширина : 1920 пикселей
Высота : 1080 пикселей
Соотношение сторон : 16:9
Режим частоты кадров : Постоянный
Частота кадров : 23,976 (24000/1001) кадра/сек
Цветовое пространство : YUV
Субдискретизация насыщенности : 4:2:0
Битовая глубина : 8 бит
Тип развёртки : Прогрессивная
Бит/(Пиксели*Кадры) : 0.135
Размер потока : 3,61 Гбайт (83%)
Заголовок : ~V~
Библиотека кодирования : x264 core 157 r2969 d4099dd
Настройки программы : cabac=1 / ref=4 / deblock=1:-3:-3 / analyse=0x3:0x133 / me=umh / subme=11 / psy=1 / psy_rd=1.00:0.00 / mixed_ref=1 / me_range=32 / chroma_me=1 / trellis=2 / 8x8dct=1 / cqm=0 / deadzone=21,11 / fast_pskip=0 / chroma_qp_offset=-2 / threads=12 / lookahead_threads=1 / sliced_threads=0 / nr=0 / decimate=0 / interlaced=0 / bluray_compat=0 / constrained_intra=0 / bframes=8 / b_pyramid=2 / b_adapt=2 / b_bias=0 / direct=3 / weightb=1 / open_gop=0 / weightp=2 / keyint=240 / keyint_min=23 / scenecut=40 / intra_refresh=0 / rc=2pass / mbtree=0 / bitrate=6702 / ratetol=1.0 / qcomp=0.66 / qpmin=0 / qpmax=69 / qpstep=4 / cplxblur=20.0 / qblur=0.5 / ip_ratio=1.30 / pb_ratio=1.30 / aq=3:0.80
Язык : Английский
Default : Да
Forced : Нет

Аудио #1
Идентификатор : 2
Формат : AC-3
Формат/Информация : Audio Coding 3
Коммерческое название : Dolby Digital
Идентификатор кодека : A_AC3
Продолжительность : 1 ч. 19 м.
Вид битрейта : Постоянный
Битрейт : 192 Кбит/сек
Каналы : 2 канала
Channel layout : L R
Частота : 48,0 КГц
Частота кадров : 31,250 кадров/сек (1536 SPF)
Битовая глубина : 16 бит
Метод сжатия : С потерями
Размер потока : 109 Мбайт (2%)
Заголовок : Dub
Язык : Русский
Service Kind : Complete Main
Default : Да
Forced : Нет

Аудио #2
Идентификатор : 3
Формат : AC-3
Формат/Информация : Audio Coding 3
Коммерческое название : Dolby Digital
Идентификатор кодека : A_AC3
Продолжительность : 1 ч. 19 м.
Вид битрейта : Постоянный
Битрейт : 384 Кбит/сек
Каналы : 6 каналов
Channel layout : L R C LFE Ls Rs
Частота : 48,0 КГц
Частота кадров : 31,250 кадров/сек (1536 SPF)
Битовая глубина : 16 бит
Метод сжатия : С потерями
Размер потока : 217 Мбайт (5%)
Заголовок : MVO
Язык : Русский
Service Kind : Complete Main
Default : Нет
Forced : Нет

Аудио #3
Идентификатор : 4
Формат : AC-3
Формат/Информация : Audio Coding 3
Коммерческое название : Dolby Digital
Идентификатор кодека : A_AC3
Продолжительность : 1 ч. 19 м.
Вид битрейта : Постоянный
Битрейт : 192 Кбит/сек
Каналы : 2 канала
Channel layout : L R
Частота : 48,0 КГц
Частота кадров : 31,250 кадров/сек (1536 SPF)
Битовая глубина : 16 бит
Метод сжатия : С потерями
Размер потока : 109 Мбайт (2%)
Заголовок : AVO [Ю.Живов]
Язык : Русский
Service Kind : Complete Main
Default : Нет
Forced : Нет

Аудио #4
Идентификатор : 5
Формат : AC-3
Формат/Информация : Audio Coding 3
Коммерческое название : Dolby Digital
Идентификатор кодека : A_AC3
Продолжительность : 1 ч. 19 м.
Вид битрейта : Постоянный
Битрейт : 448 Кбит/сек
Каналы : 6 каналов
Channel layout : L R C LFE Ls Rs
Частота : 48,0 КГц
Частота кадров : 31,250 кадров/сек (1536 SPF)
Битовая глубина : 16 бит
Метод сжатия : С потерями
Размер потока : 254 Мбайт (6%)
Язык : Английский
Service Kind : Complete Main
Default : Нет
Forced : Нет

Текст #1
Идентификатор : 6
Формат : UTF-8
Идентификатор кодека : S_TEXT/UTF8
Идентификатор кодека/Информация : UTF-8 Plain Text
Язык : Русский
Default : Нет
Forced : Нет

Текст #2
Идентификатор : 7
Формат : UTF-8
Идентификатор кодека : S_TEXT/UTF8
Идентификатор кодека/Информация : UTF-8 Plain Text
Язык : Английский
Default : Нет
Forced : Нет

Меню
00:00:00.000 : en:Main Title / Max's Last Night At Home
00:07:15.435 : en:First Day Of The Rest Of Our Lives
00:10:51.859 : en:Turmoil At The Toy Company
00:15:10.993 : en:Making The Bean Scene
00:20:51.416 : en:A Matter Of Degrees
00:21:45.804 : en:Max's Worst Nightmare
00:26:39.472 : en:Meeting Ms. Marpole
00:30:45.802 : en:The Newest Gamma
00:33:57.452 : en:Getting Down At Club Rave
00:35:43.141 : en:"Shake Your Groove Thing"
00:40:33.639 : en:The Qualifying Round / Father vs. Son
00:46:29.369 : en:Mid-term Day Dreamin'
00:49:46.149 : en:Regaining Focus
00:51:01.349 : en:One Goof Too Many
00:55:38.501 : en:Knuckling Down
00:57:05.630 : en:Goodbye Gammas
00:59:23.768 : en:The Semifinals / Now It's Personal
01:02:16.566 : en:The Finals / Two Goofs Are Better Than One
01:07:39.388 : en:Finishing With A Bang
01:11:08.806 : en:Graduation Day
01:13:12.096 : en:End Credits





Скачать книги и аудио книги через торрент


Вернуться к началу
  
 
   Похожие торренты   Автор   Торрент   Размер 
В этой теме нет новых непрочитанных сообщений. Каникулы Гуфи / A Goofy Movie [Мультфильм, семейный, полнометражный, 1995] BDRip 1080p, Dub

salma3

0 | 0

5.75 ГБ

В этой теме нет новых непрочитанных сообщений. Тачки / Cars [Мультфильм, комедия, приключения, семейный, спорт, полнометражный, 2006] UHD BDRemux 2160p, Dub | 4K | Лицензия

K15

5 | 4

39.68 ГБ

В этой теме нет новых непрочитанных сообщений. Гуфи и его команда / Goof Troop [S01-02] [мультфильм, комедия, семейный, 1992-1993] WEB-DL 1080p, Dub

salma3

0 | 0

52.54 ГБ

В этой теме нет новых непрочитанных сообщений. Велотачки / Bikes [мультфильм, семейный, спорт, 2018] WEB-DL 1080p, Dub [iTunes]

salma3

0 | 1

3.21 ГБ

В этой теме нет новых непрочитанных сообщений. План игры / The Game Plan [комедия, семейный, спорт, 2007] BDRip, Dub

salma3

7 | 1

2.18 ГБ

В этой теме нет новых непрочитанных сообщений. Маленькие гиганты / Little Giants [комедия, семейный, спорт, 1994] WEB-DL 1080p, Dub

salma3

0 | 1

8.6 ГБ

В этой теме нет новых непрочитанных сообщений. Экстремальный лесбийский страпон 2 / Extreme Strap-On Lesbians 2 (2017) VOD

zorgi

0 | 0

1.88 ГБ


Начать новую тему Ответить на тему  [ 1 сообщение ] 




Для Мосгорсуда, Роскомнадзора и рекламодателей:: rstracker[собака]yandex.ru
cron