COVID-19 - Последняя информация о коронавирусе на сайте Минздрава




Торрент файл
скачать торрент магнет ссылка Добавлен: 01 июл 2019, 20:26
Размер: 37.91 ГБ
Сидеров: 0
Личеров: 0
Статус: (salma3)
Автор

СообщениеДобавлено: 01 июл 2019, 20:26 

Информация о фильме
Название: История игрушек
Оригинальное название: Toy Story
Год выхода: 1995
Жанр: Мультфильм, фэнтези, комедия, приключения, семейный, полнометражный
Режиссер: Джон Лассетер
В ролях: Том Хэнкс, Тим Аллен, Дон Риклз, Джим Варни, Уоллес Шон, Джон Ратценбергер, Энни Поттс, Джон Моррис, Эрик фон Деттен, Лори Меткаф, Сара Фриман, Пенн Джиллетт, Джек Эйнджел, Спенсер Асте, Грег Берг, Лиза Брэдли, Кендалл Каннингэм, Деби Дерриберри, Коди Доркин, Билл Фармер, Крэйг Гуд, Грегори Грудт, Даниэль Джудовитс, Сэм Лассетер, Бриттани Левенбраун, Шерри Линн, Скотт МакЭфи, Микки Макгоун, Райан О’Донохью, Джефф Пиджон, Патрик Пинни, Филип Проктор, Жан Рэбсон, Джо Рэнфт, Эндрю Стэнтон, Шэйн Свит



О фильме: Каждый ребенок верит, что когда он оставляет свои игрушки одни, они начинают заниматься своими делами. Этот мультипликационный фильм позволяет убедиться им в своей правоте. Основная идея фильма — каждая игрушка боится надоесть, стать забытой, замененной другой, так как весь смысл их существования — доставлять счастье своим хозяевам.

Страна: США
Студия: Pixar Animation Studios, Walt Disney Pictures
Продолжительность: 01:21:06
Перевод: Дублированный | Лицензия
Качество: BDRemux 2160p
Видео: MPEG-H HEVC HDR Video, 3840x2160, 58100 Kbit/s, 23.976 fps
Звук: Аудио #01: 48 kHz, AC3, 5.1, 384 Kbps | iTunes | RUS |
Аудио #02: 48 kHz, TrueHD, 7.1, 7637 Kbps | Оригинал | ENG |
Аудио #03: 48 kHz, AC3, 5.1, 640 Kbps | Оригинал | ENG |
Субтитры: Русские (Full), английские


General
Unique ID : 320054609197000192264890264327300630152 (0xF0C8468BB36A810362464998B814C688)
Complete name : E:RelizesToy.Story.1995.BDREMUX.2160p.HDR.seleZen.mkv
Format : Matroska
Format version : Version 4
File size : 37.9 GiB
Duration : 1 h 21 min
Overall bit rate mode : Variable
Overall bit rate : 66.9 Mb/s
Movie name : Toy Story 4K 1995 from селезень
Encoded date : UTC 2019-05-28 22:11:21
Writing application : mkvmerge v33.1.0 ('Primrose') 64-bit
Writing library : libebml v1.3.7 + libmatroska v1.5.0

Video
ID : 1
Format : HEVC
Format/Info : High Efficiency Video Coding
Format profile : Main 10@L5.1@High
HDR format : SMPTE ST 2086, HDR10 compatible
Codec ID : V_MPEGH/ISO/HEVC
Duration : 1 h 21 min
Bit rate : 58.1 Mb/s
Width : 3 840 pixels
Height : 2 160 pixels
Display aspect ratio : 16:9
Frame rate mode : Constant
Frame rate : 23.976 (24000/1001) FPS
Color space : YUV
Chroma subsampling : 4:2:0 (Type 2)
Bit depth : 10 bits
Bits/(Pixel*Frame) : 0.292
Stream size : 32.9 GiB (87%)
Writing library : ATEME Titan File 3.9.0 (4.9.0.0)
Language : English
Default : Yes
Forced : No
Color range : Limited
Color primaries : BT.2020
Transfer characteristics : PQ
Matrix coefficients : BT.2020 non-constant
Mastering display color pri : Display P3
Mastering display luminance : min: 0.0000 cd/m2, max: 1000 cd/m2

Audio #1
ID : 2
Format : AC-3
Format/Info : Audio Coding 3
Commercial name : Dolby Digital
Codec ID : A_AC3
Duration : 1 h 21 min
Bit rate mode : Constant
Bit rate : 448 kb/s
Channel(s) : 6 channels
Channel layout : L R C LFE Ls Rs
Sampling rate : 48.0 kHz
Frame rate : 31.250 FPS (1536 SPF)
Bit depth : 16 bits
Compression mode : Lossy
Stream size : 260 MiB (1%)
Title : Dub [License]
Language : Russian
Service kind : Complete Main
Default : Yes
Forced : Yes

Audio #2
ID : 3
Format : MLP FBA 16-ch
Format/Info : Meridian Lossless Packing FBA with 16-channel presentation
Commercial name : Dolby TrueHD with Dolby Atmos
Codec ID : A_TRUEHD
Duration : 1 h 21 min
Bit rate mode : Variable
Bit rate : 7 637 kb/s
Maximum bit rate : 9 612 kb/s
Channel(s) : 8 channels
Channel layout : L R C LFE Ls Rs Lb Rb
Sampling rate : 48.0 kHz
Frame rate : 1 200.000 FPS (40 SPF)
Compression mode : Lossless
Stream size : 4.33 GiB (11%)
Title : Original
Language : English
Default : No
Forced : No
Number of dynamic objects : 13
Bed channel count : 1 channel
Bed channel configuration : LFE

Audio #3
ID : 4
Format : AC-3
Format/Info : Audio Coding 3
Commercial name : Dolby Digital
Codec ID : A_AC3
Duration : 1 h 21 min
Bit rate mode : Constant
Bit rate : 640 kb/s
Channel(s) : 6 channels
Channel layout : L R C LFE Ls Rs
Sampling rate : 48.0 kHz
Frame rate : 31.250 FPS (1536 SPF)
Bit depth : 16 bits
Compression mode : Lossy
Stream size : 371 MiB (1%)
Language : English
Service kind : Complete Main
Default : No
Forced : No

Text #1
ID : 5
Format : UTF-8
Codec ID : S_TEXT/UTF8
Codec ID/Info : UTF-8 Plain Text
Duration : 1 h 18 min
Bit rate : 104 b/s
Count of elements : 1131
Stream size : 59.7 KiB (0%)
Title : Full
Language : Russian
Default : No
Forced : No

Text #2
ID : 6
Format : UTF-8
Codec ID : S_TEXT/UTF8
Codec ID/Info : UTF-8 Plain Text
Duration : 1 h 18 min
Bit rate : 70 b/s
Count of elements : 1143
Stream size : 40.2 KiB (0%)
Title : Full
Language : English
Default : No
Forced : No

Text #3
ID : 7
Format : UTF-8
Codec ID : S_TEXT/UTF8
Codec ID/Info : UTF-8 Plain Text
Duration : 1 h 18 min
Bit rate : 86 b/s
Count of elements : 1390
Stream size : 49.3 KiB (0%)
Title : SDH
Language : English
Default : No
Forced : No

Menu
00:00:00.000 : en:Sheriff Woody
00:02:03.081 : en:Opening Credits
00:04:00.949 : en:The Coast Is Clear
00:06:34.852 : en:The Staff Meeting
00:09:20.101 : en:Recon Plan Charlie
00:14:17.815 : en:Buzz Lightyear, Space Ranger
00:20:10.959 : en:Strange Things
00:22:18.045 : en:Woody vs. Buzz
00:24:25.422 : en:Sid
00:26:02.060 : en:Who Will Andy Pick?
00:29:29.768 : en:Buzz Hitches a Ride
00:30:09.849 : en:Lost at the Gas Station
00:35:10.399 : en:Pizza Planet
00:39:26.238 : en:Sid's House
00:43:00.286 : en:Back at Andy's
00:43:44.163 : en:Playtime with Sid
00:46:26.533 : en:The Buzz Lightyear Commercial
00:47:21.004 : en:I Will Go Sailing No More
00:49:08.946 : en:Hannah's Tea Party
00:51:08.982 : en:Sid's Window to Andy's Window
00:53:50.769 : en:The Big One
00:56:24.381 : en:Andy Misses Woody
00:57:15.598 : en:Buzz, I Can't Do This Without You
01:01:41.698 : en:Woody Asks for Help
01:02:50.933 : en:Wind the Frog
01:04:49.927 : en:Play Nice!
01:07:59.492 : en:The Chase
01:13:11.136 : en:Rocket Power
01:15:40.827 : en:Christmas in Andy's New House
01:17:09.207 : en:End Credits



Скачать книги и аудио книги через торрент


Вернуться к началу
  
 
   Похожие торренты   Автор   Торрент   Размер 
В этой теме нет новых непрочитанных сообщений. История игрушек 2 / Toy Story 2 [Мультфильм, фэнтези, комедия, приключения, семейный, полнометражный, 1999] UHD BDRemux 2160p, Dub | 4K | [Лицензия]

NTL

0 | 1

38 ГБ

В этой теме нет новых непрочитанных сообщений. История игрушек: Большой побег / Toy Story 3 [Мультфильм, фэнтези, комедия, приключения, семейный, полнометражный, 2010] UHD BDRemux 2160p, Dub | 4K | [Лицензия]

NTL

0 | 0

35.43 ГБ

В этой теме нет новых непрочитанных сообщений. История игрушек 4 / Toy Story 4 [Мультфильм, фэнтези, комедия, 2019] BDRemux 1080p, Dub [Лицензия]

salma3

0 | 3

19.89 ГБ

В этой теме нет новых непрочитанных сообщений. История игрушек 4 / Toy Story 4 [Мультфильм, фэнтези, комедия, 2019] BDRemux 1080p, Dub [Лицензия] [3D-Video]

salma3

0 | 0

23.79 ГБ

В этой теме нет новых непрочитанных сообщений. История игрушек 4 / Toy Story 4 [фэнтези, семейный, приключения, комедия, мультфильм, 2019] TS, Dub

NTL

29 | 9

1.37 ГБ

В этой теме нет новых непрочитанных сообщений. Тачки / Cars [Мультфильм, комедия, приключения, семейный, спорт, полнометражный, 2006] UHD BDRemux 2160p, Dub | 4K | Лицензия

K15

5 | 4

39.68 ГБ

В этой теме нет новых непрочитанных сообщений. История игрушек 4 / Toy Story 4 [Мультфильм, фэнтези, комедия, 2019] BDRip, Dub [Лицензия]

salma3

0 | 0

2.17 ГБ


Начать новую тему Ответить на тему  [ 1 сообщение ] 




Для Мосгорсуда, Роскомнадзора и рекламодателей:: rstracker[собака]yandex.ru
cron