COVID-19 - Последняя информация о коронавирусе на сайте Минздрава




Торрент файл
скачать торрент магнет ссылка Добавлен: 01 июл 2019, 20:24
Размер: 38 ГБ
Сидеров: 0
Личеров: 1
Статус: (salma3)
Автор

СообщениеДобавлено: 01 июл 2019, 20:24 

Информация о фильме
Название: История игрушек 2
Оригинальное название: Toy Story 2
Год выхода: 1999
Жанр: Мультфильм, фэнтези, комедия, приключения, семейный, полнометражный
Режиссер: Джон Лассетер, Эш Браннон, Ли Анкрич
В ролях: Том Хэнкс, Тим Аллен, Джоан Кьюсак, Келси Грэммер, Дон Риклз, Джим Варни, Уоллес Шон, Джон Ратценбергер, Энни Поттс, Уэйн Найт, Джон Моррис, Лори Меткаф, Эстелль Харрис, Джоди Бенсон, Джонатан Харрис, Джо Рэнфт, Эндрю Стэнтон, Джефф Пиджон, Джек Эйнджел, Боб Берген, Мэри Кэй Бергман, Шерил Бернштейн, Роджер Бампасс, Кори Бёртон, Рэйчел Дэвей, Деби Дерриберри, Джесика Эванс



О фильме: Ковбой Вуди и другие игрушки мальчика по имени Энди продолжают жить, радуясь каждому дню. Но неожиданно все меняется, когда Вуди похищает коварный коллекционер. Оказывается, что Вуди — очень ценная игрушка из коллекции, за которую японский музей игрушек готов заплатить огромную сумму. В доме коллекционера он находит своих родственников. В это время игрушки во главе с Баззом Лайтером отправляются спасать Вуди. Вуди узнает о своем знаменитом прошлом, Базз и другие игрушки проходят опасный и тернистый путь. Перед Вуди встает непростой вопрос — каково же его предназначение? Блистать в витрине музея или же вернуться к любимому хозяину?

Страна: США
Студия: Pixar Animation Studios, Walt Disney Pictures
Продолжительность: 01:32:26
Перевод: Дублированный | Лицензия
Качество: BDRemux 2160p
Видео: MPEG-H HEVC HDR Video, 3840x2160, 50600 Kbit/s, 23.976 fps
Звук: Аудио #01: 48 kHz, AC3, 5.1, 448 Kbps | Лицензия | RUS |
Аудио #02: 48 kHz, TrueHD, 7.1, 7053 Kbps | Оригинал | ENG |
Аудио #03: 48 kHz, AC3, 5.1, 640 Kbps | Оригинал | ENG |
Субтитры: Русские (Full), английские


General
Unique ID : 278465747604067803627459766249674996993 (0xD17E8D5BA5D99ABB74F27D9B64637D01)
Complete name : D:Video111Toy.Story.2.1999.BDREMUX.2160p.HDR.seleZen.mkv
Format : Matroska
Format version : Version 4
File size : 38.0 GiB
Duration : 1 h 32 min
Overall bit rate mode : Variable
Overall bit rate : 58.9 Mb/s
Movie name : Toy Story 2 4K 1999 from селезень
Encoded date : UTC 2019-05-29 16:29:58
Writing application : mkvmerge v33.1.0 ('Primrose') 64-bit
Writing library : libebml v1.3.7 + libmatroska v1.5.0

Video
ID : 1
Format : HEVC
Format/Info : High Efficiency Video Coding
Format profile : Main 10@L5.1@High
HDR format : SMPTE ST 2086, HDR10 compatible
Codec ID : V_MPEGH/ISO/HEVC
Duration : 1 h 32 min
Bit rate : 50.6 Mb/s
Width : 3 840 pixels
Height : 2 160 pixels
Display aspect ratio : 16:9
Frame rate mode : Constant
Frame rate : 23.976 (24000/1001) FPS
Color space : YUV
Chroma subsampling : 4:2:0 (Type 2)
Bit depth : 10 bits
Bits/(Pixel*Frame) : 0.255
Stream size : 32.7 GiB (86%)
Writing library : ATEME Titan File 3.9.0 (4.9.0.0)
Language : English
Default : Yes
Forced : No
Color range : Limited
Color primaries : BT.2020
Transfer characteristics : PQ
Matrix coefficients : BT.2020 non-constant
Mastering display color pri : Display P3
Mastering display luminance : min: 0.0000 cd/m2, max: 1000 cd/m2

Audio #1
ID : 2
Format : AC-3
Format/Info : Audio Coding 3
Commercial name : Dolby Digital
Codec ID : A_AC3
Duration : 1 h 32 min
Bit rate mode : Constant
Bit rate : 448 kb/s
Channel(s) : 6 channels
Channel layout : L R C LFE Ls Rs
Sampling rate : 48.0 kHz
Frame rate : 31.250 FPS (1536 SPF)
Bit depth : 16 bits
Compression mode : Lossy
Stream size : 296 MiB (1%)
Title : Dub [License]
Language : Russian
Service kind : Complete Main
Default : Yes
Forced : Yes

Audio #2
ID : 3
Format : MLP FBA 16-ch
Format/Info : Meridian Lossless Packing FBA with 16-channel presentation
Commercial name : Dolby TrueHD with Dolby Atmos
Codec ID : A_TRUEHD
Duration : 1 h 32 min
Bit rate mode : Variable
Bit rate : 7 059 kb/s
Maximum bit rate : 8 883 kb/s
Channel(s) : 8 channels
Channel layout : L R C LFE Ls Rs Lb Rb
Sampling rate : 48.0 kHz
Frame rate : 1 200.000 FPS (40 SPF)
Compression mode : Lossless
Stream size : 4.56 GiB (12%)
Title : Original
Language : English
Default : No
Forced : No
Number of dynamic objects : 13
Bed channel count : 1 channel
Bed channel configuration : LFE

Audio #3
ID : 4
Format : AC-3
Format/Info : Audio Coding 3
Commercial name : Dolby Digital
Codec ID : A_AC3
Duration : 1 h 32 min
Bit rate mode : Constant
Bit rate : 640 kb/s
Channel(s) : 6 channels
Channel layout : L R C LFE Ls Rs
Sampling rate : 48.0 kHz
Frame rate : 31.250 FPS (1536 SPF)
Bit depth : 16 bits
Compression mode : Lossy
Stream size : 423 MiB (1%)
Title : Original
Language : English
Service kind : Complete Main
Default : No
Forced : No

Text #1
ID : 5
Format : UTF-8
Codec ID : S_TEXT/UTF8
Codec ID/Info : UTF-8 Plain Text
Duration : 1 h 25 min
Bit rate : 102 b/s
Count of elements : 1128
Stream size : 64.7 KiB (0%)
Title : Full
Language : Russian
Default : No
Forced : No

Text #2
ID : 6
Format : UTF-8
Codec ID : S_TEXT/UTF8
Codec ID/Info : UTF-8 Plain Text
Duration : 1 h 25 min
Bit rate : 80 b/s
Count of elements : 1127
Stream size : 50.3 KiB (0%)
Title : Full
Language : English
Default : No
Forced : No

Text #3
ID : 7
Format : UTF-8
Codec ID : S_TEXT/UTF8
Codec ID/Info : UTF-8 Plain Text
Duration : 1 h 27 min
Bit rate : 76 b/s
Count of elements : 1371
Stream size : 48.8 KiB (0%)
Title : SDH
Language : English
Default : No
Forced : No

Menu
00:00:00.000 : en:Opening Titles
00:01:24.417 : en:Buzz's Mission
00:04:49.080 : en:Woody's Last Hat
00:07:36.622 : en:It's Buster!
00:10:41.557 : en:The Nightmare
00:11:55.339 : en:Wheezy
00:12:47.933 : en:Yard Sale
00:15:30.638 : en:Kidnapped!
00:18:16.678 : en:Who Stole Woody?
00:20:18.425 : en:The Roundup Gang
00:24:14.870 : en:Operation Rescue Woody
00:25:55.220 : en:"Woody's Roundup"
00:30:32.872 : en:Woody Loses His Arm
00:31:49.282 : en:Buzz's Speech
00:32:52.303 : en:Gettin the Arm
00:36:45.828 : en:Crossing the Road
00:39:09.972 : en:The Cleaner
00:39:53.724 : en:Al's Toy Barn
00:41:07.173 : en:Woody's Restoration
00:42:26.669 : en:Buzz Switch
00:44:42.096 : en:The Barbie Aisle
00:46:59.399 : en:Jessie's Story ("When She Loved Me")
00:53:24.618 : en:The Toys Find Al
00:56:20.752 : en:Into the Vents
01:01:10.875 : en:Sheriff Woody
01:02:14.772 : en:To the Rescue!
01:04:24.735 : en:Woody Stays
01:08:01.243 : en:Stinky Pete
01:09:52.813 : en:Zurg Battle
01:12:28.302 : en:To the Airport
01:14:59.328 : en:Woody vs. Prospector
01:17:29.019 : en:Saving Jessie
01:19:47.115 : en:Takeoff!
01:21:36.641 : en:Welcome Home
01:25:49.811 : en:End Credits



Скачать книги и аудио книги через торрент


Вернуться к началу
  
 
   Похожие торренты   Автор   Торрент   Размер 
В этой теме нет новых непрочитанных сообщений. История игрушек / Toy Story [Мультфильм, фэнтези, комедия, приключения, семейный, полнометражный, 1995] UHD BDRemux 2160p, Dub | 4K | [Лицензия]

NTL

0 | 0

37.91 ГБ

В этой теме нет новых непрочитанных сообщений. История игрушек: Большой побег / Toy Story 3 [Мультфильм, фэнтези, комедия, приключения, семейный, полнометражный, 2010] UHD BDRemux 2160p, Dub | 4K | [Лицензия]

NTL

0 | 0

35.43 ГБ

В этой теме нет новых непрочитанных сообщений. История игрушек 4 / Toy Story 4 [Мультфильм, фэнтези, комедия, 2019] BDRemux 1080p, Dub [Лицензия]

salma3

0 | 3

19.89 ГБ

В этой теме нет новых непрочитанных сообщений. История игрушек 4 / Toy Story 4 [Мультфильм, фэнтези, комедия, 2019] BDRemux 1080p, Dub [Лицензия] [3D-Video]

salma3

0 | 0

23.79 ГБ

В этой теме нет новых непрочитанных сообщений. История игрушек 4 / Toy Story 4 [фэнтези, семейный, приключения, комедия, мультфильм, 2019] TS, Dub

NTL

29 | 9

1.37 ГБ

В этой теме нет новых непрочитанных сообщений. Тачки / Cars [Мультфильм, комедия, приключения, семейный, спорт, полнометражный, 2006] UHD BDRemux 2160p, Dub | 4K | Лицензия

K15

5 | 4

39.68 ГБ

В этой теме нет новых непрочитанных сообщений. История игрушек 4 / Toy Story 4 [Мультфильм, фэнтези, комедия, 2019] BDRip, Dub [Лицензия]

salma3

3 | 1

1.46 ГБ


Начать новую тему Ответить на тему  [ 1 сообщение ] 




Для Мосгорсуда, Роскомнадзора и рекламодателей:: rstracker[собака]yandex.ru
cron