Торрент файл
скачать торрент магнет ссылка Добавлен: 27 июн 2019, 16:26
Размер: 1.46 ГБ
Сидеров: 0
Личеров: 0
Статус: (salma3)
Автор

СообщениеДобавлено: 27 июн 2019, 16:26 

Не в сети
Супермодератор
Аватара пользователя
Дата регистрации:
15 фев 2012, 16:44
Возраст: 32
Спасибо: 8320 / 2148
Сообщения: 97229
Год выпуска: 2019
Жанр: Мультфильм, комедия, приключения
Режиссер: Василий Ровенский, Наталья Нилова

В ролях: Дмитрий Назаров, Максим Галкин, Филипп Киркоров, Алексей Воробьёв, Татьяна Навка, Диомид Виноградов

О фильме:
Однажды бестолковый аист из центра доставки детей перепутал адреса и вместо того, чтобы доставить малыша в семью панд, приносит его медведю по имени Мик-Мик. Мик-Мик во всём любит порядок и решает доставить малыша панду его родителям в южную часть Китая. В путешествие с ним увязывается непутёвый сосед заяц Оскар. По дороге они встречают хвастливого пеликана Дюка, трусливого волка Януса и романтичного тигра Амура.



Выпущено: Россия, США, Licensing Brands
Продолжительность: 01:20:21
Язык: Русский | iTunes
Релиз от: порошков

Файл
Контейнер: AVI
Качество: WEB-DLRip
Видео: 720x304 (2.37:1), 25 fps, XviD build 73 ~2201 kbps avg, 0.40 bit/pixel
Аудио: 48 kHz, AC3 Dolby Digital, 3/2 (L,C,R,l,r) + LFE ch, ~384 kbps

Формат : AVI
Формат/Информация : Audio Video Interleave
Размер файла : 1,46 Гбайт
Продолжительность : 1 ч. 20 м.
Общий поток : 2595 Кбит/сек
Название фильма : Большое путешествие_2019_WEB-DLRip
Программа кодирования : VirtualDubMod 1.5.10.3 | http://www.virtualdub-fr.org || (build 2550/release)
Авторское право : порошков

Видео
Идентификатор : 0
Формат : MPEG-4 Visual
Профиль формата : Advanced Simple@L5
Настройки формата : BVOP1 / Custom Matrix
Параметр BVOP формата : 1
Параметр QPel формата : Нет
Параметр GMC формата : Без точки перехода
Параметр матрицы формата : Выборочная
Идентификатор кодека : XVID
Идентификатор кодека/Подсказка : XviD
Продолжительность : 1 ч. 20 м.
Битрейт : 2201 Кбит/сек
Ширина : 720 пикселей
Высота : 304 пикселя
Соотношение сторон : 2,35:1
Частота кадров : 25,000 кадров/сек
Цветовое пространство : YUV
Субдискретизация насыщенности : 4:2:0
Битовая глубина : 8 бит
Тип развёртки : Прогрессивная
Метод сжатия : С потерями
Бит/(Пиксели*Кадры) : 0.402
Размер потока : 1,24 Гбайт (85%)
Библиотека кодирования : XviD 73

Аудио
Идентификатор : 1
Формат : AC-3
Формат/Информация : Audio Coding 3
Коммерческое название : Dolby Digital
Идентификатор кодека : 2000
Продолжительность : 1 ч. 20 м.
Вид битрейта : Постоянный
Битрейт : 384 Кбит/сек
Каналы : 6 каналов
ChannelLayout : L R C LFE Ls Rs
Частота : 48,0 КГц
Частота кадров : 31,250 кадров/сек (1536 SPF)
Битовая глубина : 16 бит
Метод сжатия : С потерями
Размер потока : 221 Мбайт (15%)
Выравнивание : Разделение по промежуткам
Продолжительность промежутка : 40 мс. (1,00 видеокадр)
Время предзагрузки промежутка : 500 мс.
ServiceKind : Complete Main


_________________
Проголосуй за трекер Открытый торрент трекер - RUS-MEDIA.ORG

Проголосуй Открытый торрент трекер - RUS-MEDIA.ORG


Вернуться к началу
 Профиль Отправить личное сообщение  
 
   Похожие торренты   Автор   Торрент   Размер 
В этой теме нет новых непрочитанных сообщений. Большое путешествие [Мультфильм, комедия, приключения, 2019] WEB-DLRip-AVC [iTunes]

salma3

16 | 0

743.34 МБ

В этой теме нет новых непрочитанных сообщений. Большое путешествие [Мультфильм, комедия, приключения, 2019] WEB-DL 1080p [iTunes]

salma3

4 | 2

2.77 ГБ

В этой теме нет новых непрочитанных сообщений. Норм и Несокрушимые: Большое путешествие / Norm of the North: King Sized Adventure [Мультфильм, комедия, семейный, 2019] WEB-DL 1080p, Dub [iTunes]

salma3

6 | 0

3.46 ГБ

В этой теме нет новых непрочитанных сообщений. Клара и волшебный дракон / Клара та Чарівний Дракон [Мультфильм, комедия, приключения, 2019] WEB-DLRip, Dub [iTunes]

salma3

0 | 0

1.46 ГБ

В этой теме нет новых непрочитанных сообщений. Эверест / Abominable [Мультфильм, фэнтези, комедия, 2019] WEB-DLRip, Dub [iTunes]

salma3

0 | 0

1.46 ГБ

В этой теме нет новых непрочитанных сообщений. Королевские каникулы / Trouble [Мультфильм, комедия, семейный, 2019] WEB-DLRip, Dub [iTunes]

salma3

2960 | 114

1.46 ГБ

В этой теме нет новых непрочитанных сообщений. Побег из джунглей / Boonie Bears: Blast Into the Past [Мультфильм, комедия, фантастика, 2019] WEB-DLRip, Dub [iTunes]

salma3

727 | 31

1.46 ГБ


Начать новую тему Ответить на тему  [ 1 сообщение ] 




Для Мосгорсуда, Роскомнадзора и рекламодателей:: rstracker[собака]yandex.ru
cron