Торрент файл
скачать торрент магнет ссылка Добавлен: 02 июн 2019, 11:12
Размер: 1.63 ГБ
Сидеров: 0
Личеров: 1
Статус: (salma3)
Автор

СообщениеДобавлено: 02 июн 2019, 11:12 

Не в сети
Супермодератор
Аватара пользователя
Дата регистрации:
15 фев 2012, 16:44
Возраст: 32
Спасибо: 8321 / 2148
Сообщения: 97229
Год выпуска: 2019
Жанр: Мультфильм, мюзикл, фэнтези
Режиссёр: Майк Митчелл

В ролях: Крис Прэтт, Элизабет Бэнкс, Уилл Арнетт, Тиффани Хэддиш, Стефани Беатриз, Элисон Бри, Ник Офферман, Чарли Дэй, Майя Рудольф, Уилл Феррелл

Описание:
Прошло пять лет с тех пор, когда все было прекрасно, и теперь герои столкнулись с новой невероятной угрозой — захватчиками LEGO DUPLO®, прибывшими из космоса и разрушающими всё на своем пути куда быстрее, чем герои могут построить вновь. В борьбе за восстановление гармонии во вселенной ЛЕГО Эммет, Люся, Бэтмен и их верные друзья отправятся в далекие неизведанные миры, в том числе необыкновенную галактику, где всегда царит музыка. Героям предстоит доказать свою смелость, находчивость и мастерство, а также понять, что каждый из них — особенный.



Страна: Дания, Норвегия, Австралия, США
Продолжительность: 01:47:09
Перевод: Дублированный | [iTunes]

Качество:BDRip-AVC
Видео: 1024x428 (2.40:1), 23,976 fps, x264 ~1 785 kbps avg, 0.170 bit/pixel
Аудио #1: 48 kHz, AC3 Dolby Digital Plus, 3/2 (L,C,R,l,r) + LFE ch, ~384.00 kbps avg | RUS
Субтитры: Русские (форс., полные)

Общее
Уникальный идентификатор : 290076052228847912393465562097796709157 (0xDA3A9D924E9677058EA5541B4592FB25)
Полное имя : F:OlLanDGroupThe.Lego.Movie.2.The.Second.Part.2019.BDRip(AVC).OlLanDGroup.mkv
Формат : Matroska
Версия формата : Version 4 / Version 2
Размер файла : 1,63 Гбайт
Продолжительность : 1 ч. 47 м.
Общий поток : 2171 Кбит/сек
Название фильма : The Lego Movie 2 The Second Part 2019 #TorpedoUK#
Дата кодирования : UTC 2019-06-02 01:48:53
Программа кодирования : mkvmerge v29.0.0 ('Like It Or Not') 64-bit
Библиотека кодирования : libebml v1.3.6 + libmatroska v1.4.9

Видео
Идентификатор : 1
Формат : AVC
Формат/Информация : Advanced Video Codec
Профиль формата : High@L4.1
Параметр CABAC формата : Да
Параметр ReFrames формата : 10 кадров
Идентификатор кодека : V_MPEG4/ISO/AVC
Продолжительность : 1 ч. 47 м.
Битрейт : 1785 Кбит/сек
Ширина : 1024 пикселя
Высота : 428 пикселей
Соотношение сторон : 2,40:1
Режим частоты кадров : Постоянный
Частота кадров : 23,976 (24000/1001) кадра/сек
Цветовое пространство : YUV
Субдискретизация насыщенности : 4:2:0
Битовая глубина : 8 бит
Тип развёртки : Прогрессивная
Бит/(Пиксели*Кадры) : 0.170
Размер потока : 1,34 Гбайт (82%)
Библиотека кодирования : x264 core 146 r2538 121396c
Настройки программы : cabac=1 / ref=10 / deblock=1:-3:-3 / analyse=0x3:0x113 / me=umh / subme=11 / psy=1 / psy_rd=1.00:0.03 / mixed_ref=1 / me_range=48 / chroma_me=1 / trellis=2 / 8x8dct=1 / cqm=0 / deadzone=21,11 / fast_pskip=1 / chroma_qp_offset=-3 / threads=6 / lookahead_threads=1 / sliced_threads=0 / nr=0 / decimate=1 / interlaced=0 / bluray_compat=0 / constrained_intra=0 / bframes=11 / b_pyramid=2 / b_adapt=2 / b_bias=0 / direct=3 / weightb=1 / open_gop=0 / weightp=2 / keyint=240 / keyint_min=23 / scenecut=40 / intra_refresh=0 / rc_lookahead=40 / rc=2pass / mbtree=0 / bitrate=1785 / ratetol=1.0 / qcomp=0.60 / qpmin=0 / qpmax=69 / qpstep=4 / cplxblur=20.0 / qblur=0.5 / vbv_maxrate=50000 / vbv_bufsize=62500 / nal_hrd=none / filler=0 / ip_ratio=1.40 / pb_ratio=1.30 / aq=1:1.00
Язык : English
Default : Да
Forced : Нет

Аудио
Идентификатор : 2
Формат : AC-3
Формат/Информация : Audio Coding 3
Расширение режима : CM (complete main)
Параметр Endianness формата : Big
Идентификатор кодека : A_AC3
Продолжительность : 1 ч. 47 м.
Вид битрейта : Постоянный
Битрейт : 384 Кбит/сек
Каналы : 6 каналов
Расположение каналов : Front: L C R, Side: L R, LFE
Частота : 48,0 КГц
Частота кадров : 31,250 кадров/сек (1536 spf)
Битовая глубина : 16 бит
Метод сжатия : С потерями
Размер потока : 294 Мбайт (18%)
Заголовок : DUB [iTunes]
Язык : Russian
Default : Да
Forced : Нет

Текст #1
Идентификатор : 3
Формат : UTF-8
Идентификатор кодека : S_TEXT/UTF8
Идентификатор кодека/Информация : UTF-8 Plain Text
Продолжительность : 1 ч. 45 м.
Битрейт : 5 бит/сек
Count of elements : 41
Размер потока : 3,90 Кбайт (0%)
Заголовок : Forced
Язык : Russian
Default : Да
Forced : Нет

Текст #2
Идентификатор : 4
Формат : UTF-8
Идентификатор кодека : S_TEXT/UTF8
Идентификатор кодека/Информация : UTF-8 Plain Text
Продолжительность : 1 ч. 46 м.
Битрейт : 128 бит/сек
Count of elements : 1905
Размер потока : 100 Кбайт (0%)
Заголовок : Full
Язык : Russian
Default : Нет
Forced : Нет

Меню
00:00:00.000 : ru:Глава 01
00:04:15.881 : ru:Глава 02
00:12:35.046 : ru:Глава 03
00:15:09.951 : ru:Глава 04
00:21:57.733 : ru:Глава 05
00:29:50.330 : ru:Глава 06
00:36:22.680 : ru:Глава 07
00:44:47.977 : ru:Глава 08
00:50:50.506 : ru:Глава 09
00:57:05.255 : ru:Глава 10
01:01:07.163 : ru:Глава 11
01:09:48.351 : ru:Глава 12
01:17:31.939 : ru:Глава 13
01:21:58.122 : ru:Глава 14
01:26:49.538 : ru:Глава 15
01:34:06.266 : ru:Глава 16
01:38:31.072 : ru:Глава 17





Релиз от:


_________________
Проголосуй за трекер Открытый торрент трекер - RUS-MEDIA.ORG

Проголосуй Открытый торрент трекер - RUS-MEDIA.ORG


Вернуться к началу
 Профиль Отправить личное сообщение  
 
   Похожие торренты   Автор   Торрент   Размер 
В этой теме нет новых непрочитанных сообщений. Аладдин / Aladdin [Мюзикл, фэнтези, приключения, 2019] BDRip-AVC, Dub [iTunes]

salma3

0 | 0

2.36 ГБ

В этой теме нет новых непрочитанных сообщений. UglyDolls. Куклы с характером / UglyDolls [Мультфильм, мюзикл, фэнтези, 2019] BDRip, Dub [iTunes]

salma3

0 | 0

1.42 ГБ

В этой теме нет новых непрочитанных сообщений. Холодное сердце 2 / Frozen II [Мультфильм, мюзикл, фэнтези, 2019] HDRip, Dub [iTunes]

salma3

607 | 8

1.46 ГБ

В этой теме нет новых непрочитанных сообщений. Король Лев / The Lion King [Мультфильм, мюзикл, драма, 2019] BDRip, Dub [iTunes]

salma3

5134 | 572

2.13 ГБ

В этой теме нет новых непрочитанных сообщений. Аладдин / Aladdin [Мюзикл, фэнтези, приключения, 2019] BDRip, Dub [iTunes]

salma3

41 | 11

1.46 ГБ

В этой теме нет новых непрочитанных сообщений. Аладдин / Aladdin [Мюзикл, фэнтези, приключения, 2019] BDRip, Dub [iTunes]

salma3

0 | 3

2.13 ГБ

В этой теме нет новых непрочитанных сообщений. Аладдин / Aladdin [Мюзикл, фэнтези, приключения, 2019] BDRip 1080p, Dub [iTunes]

salma3

0 | 0

15.1 ГБ


Начать новую тему Ответить на тему  [ 1 сообщение ] 




Для Мосгорсуда, Роскомнадзора и рекламодателей:: rstracker[собака]yandex.ru
cron