COVID-19 - Последняя информация о коронавирусе на сайте Минздрава




Торрент файл
скачать торрент магнет ссылка Добавлен: 21 май 2019, 10:41
Размер: 4.98 ГБ
Сидеров: 0
Личеров: 0
Статус: (salma3)
Автор

СообщениеДобавлено: 21 май 2019, 10:41 

Не в сети
Супермодератор
Аватара пользователя
Дата регистрации:
15 фев 2012, 16:44
Возраст: 31
Спасибо: 8273 / 2148
Сообщения: 96475
Год выхода: 2006
Жанр: мультфильм, комедия, приключения
Режиссер: Тим Джонсон, Кэри Киркпатрик

В ролях: Брюс Уиллис, Стив Карелл, Гарри Шендлинг, Ванда Сайкс, Уильям Шетнер, Ник Нолти, Томас Хейден Чёрч, Эллисон Дженни, Юджин Леви, Кэтрин О’Хара

Описание: Пробудившаяся весной от зимней спячки черепаха Верн и ее лесные друзья обнаруживают, что на территории их обитания выросла высоченная живая изгородь. Находчивый енот ЭрДжей объясняет своим бестолковым товарищам, что мир, находящийся за изгородью, это «ворота в прекрасную жизнь», так как там обитают странные существа, называемые людьми, которые живут, чтобы есть, а не едят, чтобы жить. Славящийся своей осторожностью и подозрительностью Верн хочет удержать лесную братию от искушения оказаться по ту сторону изгороди. Однако настырный ЭрДжей доказывает всем, что отходы человеческой жизнедеятельности - это настоящее сокровище для животных. Он убеждает своих собратьев, что следует отбросить страх и воспользоваться таким удачным соседством. В итоге ЭрДжей и Верн заключают дружеский союз и начинают наслаждаться плодами цивилизации…



Производство: США
Продолжительность: 01:23:38
Перевод: Дубляж

Качество: BDRip 1080p-HEVC
Видео: HEVC/H.265, 1920x1036, ~7767 Kbps, 10 bit
Аудио 01: AC3, 6 ch, 384 Kbps | Русский, Дублированный
Аудио 02: AC3, 6 ch, 384 Kbps | Английский, Оригинал
Субтитры: Русские (полные)

Общее
Уникальный идентификатор : 16861860527393301766024009495893035879 (0xCAF79E8F318E8DE3B624276C248CB67)
Полное имя : Лесная братва (2006) BDRip 1080p [HEVC] 10 bit.mkv
Формат : Matroska
Версия формата : Version 4
Размер файла : 4,98 Гбайт
Продолжительность : 1 ч. 23 м.
Общий поток : 8524 Кбит/сек
Название фильма : Лесная братва (2006) Encoded_by_M@kSIMus
Дата кодирования : UTC 2019-05-21 00:09:18
Программа кодирования : mkvmerge v30.1.0 ('Forever And More') 64-bit
Библиотека кодирования : libebml v1.3.6 + libmatroska v1.4.9
Обложка : Yes
Attachments : cover.jpg

Видео
Идентификатор : 1
Формат : HEVC
Формат/Информация : High Efficiency Video Coding
Профиль формата : Format Range@L4.1@High
Идентификатор кодека : V_MPEGH/ISO/HEVC
Продолжительность : 1 ч. 23 м.
Битрейт : 7767 Кбит/сек
Ширина : 1920 пикселей
Высота : 1036 пикселей
Соотношение сторон : 1,85:1
Режим частоты кадров : Постоянный
Частота кадров : 23,976 (24000/1001) кадра/сек
Цветовое пространство : YUV
Субдискретизация насыщенности : 4:4:4
Битовая глубина : 10 бит
Бит/(Пиксели*Кадры) : 0.163
Размер потока : 4,53 Гбайт (91%)
Заголовок : Лесная братва (2006) Encoded_by_M@kSIMus
Библиотека кодирования : x265 2.9+9-f74003e88622:[Windows][GCC 8.2.0][64 bit] 10bit
Настройки программы : cpuid=1049583 / frame-threads=5 / numa-pools=4 / wpp / no-pmode / no-pme / no-psnr / no-ssim / log-level=3 / input-csp=3 / input-res=1920x1036 / interlace=0 / total-frames=0 / level-idc=41 / high-tier=1 / uhd-bd=0 / ref=4 / allow-non-conformance / no-repeat-headers / annexb / no-aud / no-hrd / info / hash=0 / no-temporal-layers / open-gop / min-keyint=24 / keyint=240 / gop-lookahead=0 / bframes=12 / b-adapt=2 / b-pyramid / bframe-bias=0 / rc-lookahead=40 / lookahead-slices=6 / scenecut=40 / radl=0 / no-intra-refresh / ctu=32 / min-cu-size=8 / no-rect / no-amp / max-tu-size=32 / tu-inter-depth=1 / tu-intra-depth=1 / limit-tu=0 / rdoq-level=0 / dynamic-rd=0.00 / no-ssim-rd / signhide / no-tskip / nr-intra=0 / nr-inter=0 / no-constrained-intra / no-strong-intra-smoothing / max-merge=3 / limit-refs=3 / no-limit-modes / me=3 / subme=7 / merange=57 / temporal-mvp / weightp / no-weightb / no-analyze-src-pics / deblock=-3:-3 / no-sao / no-sao-non-deblock / rd=3 / no-early-skip / no-rskip / no-fast-intra / no-tskip-fast / no-cu-lossless / no-b-intra / no-splitrd-skip / rdpenalty=0 / psy-rd=2.00 / psy-rdoq=0.00 / no-rd-refine / no-lossless / cbqpoffs=6 / crqpoffs=6 / rc=crf / crf=18.0 / qcomp=0.60 / qpstep=4 / stats-write=0 / stats-read=0 / vbv-maxrate=50000 / vbv-bufsize=50000 / vbv-init=0.9 / crf-max=0.0 / crf-min=0.0 / ipratio=1.40 / pbratio=1.30 / aq-mode=3 / aq-strength=1.00 / no-cutree / zone-count=0 / no-strict-cbr / qg-size=32 / no-rc-grain / qpmax=69 / qpmin=0 / no-const-vbv / sar=1 / overscan=0 / videoformat=5 / range=0 / colorprim=1 / transfer=1 / colormatrix=1 / chromaloc=0 / display-window=0 / max-cll=0,0 / min-luma=0 / max-luma=1023 / log2-max-poc-lsb=8 / vui-timing-info / vui-hrd-info / slices=1 / no-opt-qp-pps / no-opt-ref-list-length-pps / no-multi-pass-opt-rps / scenecut-bias=0.05 / no-opt-cu-delta-qp / no-aq-motion / no-hdr / no-hdr-opt / no-dhdr10-opt / no-idr-recovery-sei / analysis-reuse-level=5 / scale-factor=0 / refine-intra=0 / refine-inter=0 / refine-mv=0 / no-limit-sao / ctu-info=0 / no-lowpass-dct / refine-mv-type=0 / copy-pic=1 / max-ausize-factor=1.0 / no-dynamic-refine / no-single-sei
Язык : English
Default : Да
Forced : Нет
Цветовой диапазон : Limited
Основные цвета : BT.709
Характеристики трансфера : BT.709
Коэффициенты матрицы : BT.709

Аудио #1
Идентификатор : 2
Формат : AC-3
Формат/Информация : Audio Coding 3
Коммерческое название : Dolby Digital
Идентификатор кодека : A_AC3
Продолжительность : 1 ч. 23 м.
Вид битрейта : Постоянный
Битрейт : 384 Кбит/сек
Каналы : 6 каналов
ChannelLayout : L R C LFE Ls Rs
Частота : 48,0 КГц
Частота кадров : 31,250 кадров/сек (1536 SPF)
Битовая глубина : 16 бит
Метод сжатия : С потерями
Размер потока : 230 Мбайт (5%)
Заголовок : Дубляж
Язык : Russian
Default : Да
Forced : Нет

Аудио #2
Идентификатор : 3
Формат : AC-3
Формат/Информация : Audio Coding 3
Коммерческое название : Dolby Digital
Идентификатор кодека : A_AC3
Продолжительность : 1 ч. 23 м.
Вид битрейта : Постоянный
Битрейт : 384 Кбит/сек
Каналы : 6 каналов
ChannelLayout : L R C LFE Ls Rs
Частота : 48,0 КГц
Частота кадров : 31,250 кадров/сек (1536 SPF)
Битовая глубина : 16 бит
Метод сжатия : С потерями
Размер потока : 229 Мбайт (4%)
Заголовок : Оригинал
Язык : English
Default : Нет
Forced : Нет

Текст
Идентификатор : 4
Формат : UTF-8
Идентификатор кодека : S_TEXT/UTF8
Идентификатор кодека/Информация : UTF-8 Plain Text
Продолжительность : 1 ч. 22 м.
Битрейт : 105 бит/сек
ElementCount : 1150
Размер потока : 63,8 Кбайт (0%)
Заголовок : Rus Full
Язык : Russian
Default : Нет
Forced : Нет

Меню
00:00:00.000 : :Chapter 01
00:04:11.334 : :Chapter 02
00:08:05.693 : :Chapter 03
00:11:55.965 : :Chapter 04
00:14:12.476 : :Chapter 05
00:19:16.238 : :Chapter 06
00:24:23.795 : :Chapter 07
00:28:08.269 : :Chapter 08
00:32:07.467 : :Chapter 09
00:34:41.204 : :Chapter 10
00:40:22.336 : :Chapter 11
00:44:49.436 : :Chapter 12
00:49:26.880 : :Chapter 13
00:54:20.090 : :Chapter 14
00:58:13.531 : :Chapter 15
01:03:33.434 : :Chapter 16
01:09:49.351 : :Chapter 17
01:15:54.132 : :Chapter 18


_________________
Проголосуй за трекер Открытый торрент трекер - RUS-MEDIA.ORG

Проголосуй Открытый торрент трекер - RUS-MEDIA.ORG


Скачать книги и аудио книги через торрент


Вернуться к началу
 Профиль Отправить личное сообщение  
 
   Похожие торренты   Автор   Торрент   Размер 
В этой теме нет новых непрочитанных сообщений. Лесная братва / Over the Hedge [мультфильм, комедия, приключения, 2006] BDRip-AVC, Dub

salma3

0 | 0

1.82 ГБ

В этой теме нет новых непрочитанных сообщений. Лесная братва / Over the Hedge [мультфильм, комедия, приключения, 2006] BDRemux 1080p, Dub

salma3

0 | 0

17.94 ГБ

В этой теме нет новых непрочитанных сообщений. Рога и копыта / Barnyard [Мультфильм, комедия, приключения, 2006] HDTVRip-HEVC 1080p, Dub

salma3

0 | 0

4.17 ГБ

В этой теме нет новых непрочитанных сообщений. Хороший динозавр / The Good Dinosaur [мультфильм, фэнтези, драма, комедия, приключения, семейный, 2015] BDRip-HEVC 1080p, Dub [Лицензия]

K15

10 | 3

6.33 ГБ

В этой теме нет новых непрочитанных сообщений. Братец медвежонок / Brother Bear [Мультфильм, приключения, семейный, 2003] BDRip-HEVC 1080p, Dub

salma3

0 | 0

3.59 ГБ

В этой теме нет новых непрочитанных сообщений. Земля до начала времен / The Land Before Time [Мультфильм, приключения, семейный, 1988] BDRip-HEVC 1080p, Dub

salma3

0 | 0

7.69 ГБ

В этой теме нет новых непрочитанных сообщений. Трон эльфов / Throne of Elves [Мультфильм, фэнтези, приключения, 2016] BDRip-HEVC 1080p, Dub [iTunes]

salma3

36 | 24

7.2 ГБ


Начать новую тему Ответить на тему  [ 1 сообщение ] 




Для Мосгорсуда, Роскомнадзора и рекламодателей:: rstracker[собака]yandex.ru
cron