Торрент файл
скачать торрент магнет ссылка Добавлен: 17 май 2019, 10:54
Размер: 1.82 ГБ
Сидеров: 0
Личеров: 0
Статус: (salma3)
Автор

СообщениеДобавлено: 17 май 2019, 10:54 

Не в сети
Супермодератор
Аватара пользователя
Дата регистрации:
15 фев 2012, 16:44
Возраст: 30
Спасибо: 8134 / 2148
Сообщения: 94938
Год выхода: 2006
Жанр: мультфильм, комедия, приключения
Режиссер: Тим Джонсон, Кэри Киркпатрик

В ролях: Брюс Уиллис, Стив Карелл, Гарри Шендлинг, Ванда Сайкс, Уильям Шетнер, Ник Нолти, Томас Хейден Чёрч, Эллисон Дженни, Юджин Леви, Кэтрин О’Хара


Пробудившаяся весной от зимней спячки черепаха Верн и ее лесные друзья обнаруживают, что на территории их обитания выросла высоченная живая изгородь. Находчивый енот ЭрДжей объясняет своим бестолковым товарищам, что мир, находящийся за изгородью, это «ворота в прекрасную жизнь», так как там обитают странные существа, называемые людьми, которые живут, чтобы есть, а не едят, чтобы жить. Славящийся своей осторожностью и подозрительностью Верн хочет удержать лесную братию от искушения оказаться по ту сторону изгороди. Однако настырный ЭрДжей доказывает всем, что отходы человеческой жизнедеятельности - это настоящее сокровище для животных. Он убеждает своих собратьев, что следует отбросить страх и воспользоваться таким удачным соседством. В итоге ЭрДжей и Верн заключают дружеский союз и начинают наслаждаться плодами цивилизации…



Страна: США
Продолжительность: 01:23:38
Перевод: Дубляж

Файл
Кодек: H.264
Качество: BDRip-AVC от SuperMin
Видео: 1104x600 (1.85:1), 2728 kbps, 23.976 fps
Звук: Русский (AC-3, 6ch, 384 kbps)
Субтитры: русские

General
Unique ID : 98211666172160345988249268431167022222 (0x49E2E0FE13CD0FCE875BFF8D50FDE48E)
Complete name : H:МУЛЬТЫЛесная братва.mkv
Format : Matroska
Format version : Version 4
File size : 1.82 GiB
Duration : 1 h 23 min
Overall bit rate : 3 108 kb/s
Movie name : Лесная братва / Over The Hedge (2006) - #LORDKILL#
Encoded date : UTC 2019-05-16 00:22:02
Writing application : mkvmerge v21.0.0 ('Tardigrades Will Inherit The Earth') 64-bit
Writing library : libebml v1.3.5 + libmatroska v1.4.8

Video
ID : 1
Format : AVC
Format/Info : Advanced Video Codec
Format profile : High@L4.1
Format settings : CABAC / 9 Ref Frames
Format settings, CABAC : Yes
Format settings, ReFrames : 9 frames
Codec ID : V_MPEG4/ISO/AVC
Duration : 1 h 23 min
Bit rate : 2 728 kb/s
Width : 1 104 pixels
Height : 600 pixels
Display aspect ratio : 1.85:1
Frame rate mode : Constant
Frame rate : 23.976 (24000/1001) FPS
Color space : YUV
Chroma subsampling : 4:2:0
Bit depth : 8 bits
Scan type : Progressive
Bits/(Pixel*Frame) : 0.172
Stream size : 1.59 GiB (88%)
Writing library : x264 core 146 r2538 121396c
Encoding settings : cabac=1 / ref=9 / deblock=1:-1:-1 / analyse=0x3:0x113 / me=umh / subme=11 / psy=1 / psy_rd=1.00:0.15 / mixed_ref=1 / me_range=32 / chroma_me=1 / trellis=2 / 8x8dct=1 / cqm=0 / deadzone=21,11 / fast_pskip=0 / chroma_qp_offset=-3 / threads=12 / lookahead_threads=2 / sliced_threads=0 / nr=0 / decimate=1 / interlaced=0 / bluray_compat=0 / constrained_intra=0 / bframes=8 / b_pyramid=2 / b_adapt=2 / b_bias=0 / direct=1 / weightb=1 / open_gop=0 / weightp=2 / keyint=240 / keyint_min=23 / scenecut=40 / intra_refresh=0 / rc=crf / mbtree=0 / crf=19.0 / qcomp=0.60 / qpmin=0 / qpmax=69 / qpstep=4 / ip_ratio=1.40 / pb_ratio=1.30 / aq=1:1.00
Language : English
Default : Yes
Forced : No

Audio
ID : 2
Format : AC-3
Format/Info : Audio Coding 3
Commercial name : Dolby Digital
Codec ID : A_AC3
Duration : 1 h 23 min
Bit rate mode : Constant
Bit rate : 384 kb/s
Channel(s) : 6 channels
Channel layout : L R C LFE Ls Rs
Sampling rate : 48.0 kHz
Frame rate : 31.250 FPS (1536 SPF)
Bit depth : 16 bits
Compression mode : Lossy
Delay relative to video : 25 s 290 ms
Stream size : 229 MiB (12%)
Title : Дубляж
Language : Russian
Service kind : Complete Main
Default : Yes
Forced : Yes

Text
ID : 3
Format : UTF-8
Codec ID : S_TEXT/UTF8
Codec ID/Info : UTF-8 Plain Text
Duration : 1 h 22 min
Bit rate : 105 b/s
Count of elements : 1150
Stream size : 63.8 KiB (0%)
Title : Full
Language : Russian
Default : No
Forced : No

Menu
00:00:00.000 : en:Chapter 01
00:04:11.334 : en:Chapter 02
00:08:05.693 : en:Chapter 03
00:11:55.965 : en:Chapter 04
00:14:12.476 : en:Chapter 05
00:19:16.238 : en:Chapter 06
00:24:23.795 : en:Chapter 07
00:28:08.269 : en:Chapter 08
00:32:07.467 : en:Chapter 09
00:34:41.204 : en:Chapter 10
00:40:22.336 : en:Chapter 11
00:44:49.436 : en:Chapter 12
00:49:26.880 : en:Chapter 13
00:54:20.090 : en:Chapter 14
00:58:13.531 : en:Chapter 15
01:03:33.434 : en:Chapter 16
01:09:49.351 : en:Chapter 17
01:15:54.132 : en:Chapter 18


_________________
Проголосуй за трекер Открытый торрент трекер - RUS-MEDIA.ORG

Проголосуй Открытый торрент трекер - RUS-MEDIA.ORG


Скачать книги и аудио книги через торрент


Вернуться к началу
 Профиль Отправить личное сообщение  
 
   Похожие торренты   Автор   Торрент   Размер 
В этой теме нет новых непрочитанных сообщений. Лесная братва / Over the Hedge [мультфильм, комедия, приключения, 2006] BDRip 1080p-HEVC, Dub

salma3

0 | 0

4.98 ГБ

В этой теме нет новых непрочитанных сообщений. Лесная братва / Over the Hedge [мультфильм, комедия, приключения, 2006] BDRemux 1080p, Dub

salma3

0 | 0

17.94 ГБ

В этой теме нет новых непрочитанных сообщений. Подводная братва / Shark Tale [мультфильм, комедия, приключения, семейный, 2004] WEBRip 1080p, Dub+Mvo+Dvo+Avo+Sub

salma3

47 | 13

7.05 ГБ

В этой теме нет новых непрочитанных сообщений. Смывайся / Flushed Away [Мультфильм, комедия, приключения, 2006] WEB-DLRip-AVC, Dub

salma3

0 | 0

746.6 МБ

В этой теме нет новых непрочитанных сообщений. Сезон охоты / Open Season [мультфильм, комедия, приключения, 2006] BDRip 1080p, Dub

salma3

26 | 17

4.37 ГБ

В этой теме нет новых непрочитанных сообщений. Большое путешествие / The Wild [комедия, приключения, 2006] BDRip-AVC, Dub

salma3

1 | 3

742.81 МБ

В этой теме нет новых непрочитанных сообщений. Снежные гонки / Racetime [Мультфильм, комедия, приключения, 2018] BDRip-AVC, Dub [iTunes]

salma3

0 | 0

1.62 ГБ


Начать новую тему Ответить на тему  [ 1 сообщение ] 




Для Мосгорсуда, Роскомнадзора и рекламодателей:: mosgorsud-torrent[собачка]yandex.ru
cron