COVID-19 - Последняя информация о коронавирусе на сайте Минздрава




Торрент файл
скачать торрент магнет ссылка Добавлен: 07 апр 2019, 11:33
Размер: 5.77 ГБ
Сидеров: 0
Личеров: 1
Статус: (salma3)
Автор

СообщениеДобавлено: 07 апр 2019, 11:33 

Не в сети
Супермодератор
Аватара пользователя
Дата регистрации:
15 фев 2012, 16:44
Возраст: 31
Спасибо: 8281 / 2148
Сообщения: 96721
Год выхода: 2018
Жанр: мультфильм, мюзикл, фэнтези
Режиссер: Кэри Киркпатрик, Джейсон Рейсиг

В ролях: Ченнинг Татум, Джеймс Корден, Зендая Колеман, Коммон, Леброн Джеймс, Дэнни ДеВито, Джина Родригез, Яра Шахиди, Эли Генри, Джимми Татро

О фильме:
Молодой находчивый йети сталкивается с тем, кого, по его глубокому убеждению, не существует — человеком. Новости о «смолфуте» приносят ему славу и шанс завоевать девушку его мечты. А ещё — вызывают переполох среди простых йети, которые теперь гадают, кто же ещё обитает в большом мире за пределами их маленькой заснеженной деревушки.



Страна: США
Продолжительность: 92 мин. / 01:32
Перевод: профессиональный (дублированный) лицензия

Файл
Кодек: MPEG2
Качество: DVD9
Видео: PAL 16:9 (720x576@1024x576) VBR 6402 Kbps, 25.000 fps
Аудио 1: Dolby AC3, 6 ch, 48.0 KHz, 384 Kbps (русский)
Аудио 2: Dolby AC3, 6 ch, 48.0 KHz, 384 Kbps (английский)
Аудио 3: Dolby AC3, 6 ch, 48.0 KHz, 384 Kbps (латышский)
Аудио 4: Dolby AC3, 6 ch, 48.0 KHz, 384 Kbps (литовский)
Аудио 5: Dolby AC3, 6 ch, 48.0 KHz, 384 Kbps (эстонский)
Субтитры: русские, английские, латышские, литовские, эстонские

[*]Йети или нет, вот они!Смолфут-какой он
Формат : MPEG-PS
Размер файла : 1024 Мбайт
Продолжительность : 16 м. 51 с.
Режим общего битрейта : Переменный
Общий поток : 8491 Кбит/сек

Видео
Идентификатор : 224 (0xE0)
Формат : MPEG Video
Версия формата : Version 2
Профиль формата : Main@Main
Настройки формата : CustomMatrix / BVOP
Параметр BVOP формата : Да
Параметр матрицы формата : Выборочная
Параметр GOP формата : Variable
Продолжительность : 16 м. 51 с.
Вид битрейта : Переменный
Битрейт : 6402 Кбит/сек
Максимальный битрейт : 7200 Кбит/сек
Ширина : 720 пикселей
Высота : 576 пикселей
Соотношение сторон : 16:9
Частота кадров : 25,000 кадров/сек
Стандарт вещания : PAL
Цветовое пространство : YUV
Субдискретизация насыщенности : 4:2:0
Битовая глубина : 8 бит
Тип развёртки : Прогрессивная
Порядок развёртки : Нижнее поле первое
Метод сжатия : С потерями
Бит/(Пиксели*Кадры) : 0.618
Временной код первого кадра : 00:59:59:00
Оригинал временного кода : Group of pictures header
GOP, открыто/закрыто : Открыто
GOP, открыто/закрыто на первом кадре : Закрыто
Размер потока : 772 Мбайт (75%)

Аудио #1
Идентификатор : 189 (0xBD)-128 (0x80)
Формат : AC-3
Формат/Информация : Audio Coding 3
Режим смешивания : DVD-Video
Продолжительность : 16 м. 51 с.
Вид битрейта : Постоянный
Битрейт : 384 Кбит/сек
Каналы : 6 каналов
Расположение каналов : Front: L C R, Side: L R, LFE
Частота : 48,0 КГц
Частота кадров : 31,250 кадров/сек (1536 SPF)
Битовая глубина : 16 бит
Метод сжатия : С потерями
Размер потока : 46,3 Мбайт (5%)

Аудио #2
Идентификатор : 189 (0xBD)-129 (0x81)
Формат : AC-3
Формат/Информация : Audio Coding 3
Режим смешивания : DVD-Video
Продолжительность : 16 м. 51 с.
Вид битрейта : Постоянный
Битрейт : 384 Кбит/сек
Каналы : 6 каналов
Расположение каналов : Front: L C R, Side: L R, LFE
Частота : 48,0 КГц
Частота кадров : 31,250 кадров/сек (1536 SPF)
Битовая глубина : 16 бит
Метод сжатия : С потерями
Размер потока : 46,3 Мбайт (5%)

Аудио #3
Идентификатор : 189 (0xBD)-130 (0x82)
Формат : AC-3
Формат/Информация : Audio Coding 3
Режим смешивания : DVD-Video
Продолжительность : 16 м. 51 с.
Вид битрейта : Постоянный
Битрейт : 384 Кбит/сек
Каналы : 6 каналов
Расположение каналов : Front: L C R, Side: L R, LFE
Частота : 48,0 КГц
Частота кадров : 31,250 кадров/сек (1536 SPF)
Битовая глубина : 16 бит
Метод сжатия : С потерями
Размер потока : 46,3 Мбайт (5%)

Аудио #4
Идентификатор : 189 (0xBD)-131 (0x83)
Формат : AC-3
Формат/Информация : Audio Coding 3
Режим смешивания : DVD-Video
Продолжительность : 16 м. 51 с.
Вид битрейта : Постоянный
Битрейт : 384 Кбит/сек
Каналы : 6 каналов
Расположение каналов : Front: L C R, Side: L R, LFE
Частота : 48,0 КГц
Частота кадров : 31,250 кадров/сек (1536 SPF)
Битовая глубина : 16 бит
Метод сжатия : С потерями
Размер потока : 46,3 Мбайт (5%)

Аудио #5
Идентификатор : 189 (0xBD)-132 (0x84)
Формат : AC-3
Формат/Информация : Audio Coding 3
Режим смешивания : DVD-Video
Продолжительность : 16 м. 51 с.
Вид битрейта : Постоянный
Битрейт : 384 Кбит/сек
Каналы : 6 каналов
Расположение каналов : Front: L C R, Side: L R, LFE
Частота : 48,0 КГц
Частота кадров : 31,250 кадров/сек (1536 SPF)
Битовая глубина : 16 бит
Метод сжатия : С потерями
Размер потока : 46,3 Мбайт (5%)

Текст #1
Идентификатор : 189 (0xBD)-32 (0x20)
Формат : RLE
Формат/Информация : Run-length encoding
Режим смешивания : DVD-Video

Текст #2
Идентификатор : 189 (0xBD)-33 (0x21)
Формат : RLE
Формат/Информация : Run-length encoding
Режим смешивания : DVD-Video

Текст #3
Идентификатор : 189 (0xBD)-34 (0x22)
Формат : RLE
Формат/Информация : Run-length encoding
Режим смешивания : DVD-Video

Текст #4
Идентификатор : 189 (0xBD)-35 (0x23)
Формат : RLE
Формат/Информация : Run-length encoding
Режим смешивания : DVD-Video

Текст #5
Идентификатор : 189 (0xBD)-36 (0x24)
Формат : RLE
Формат/Информация : Run-length encoding
Режим смешивания : DVD-Video

Меню



_________________
Проголосуй за трекер Открытый торрент трекер - RUS-MEDIA.ORG

Проголосуй Открытый торрент трекер - RUS-MEDIA.ORG


Скачать книги и аудио книги через торрент


Вернуться к началу
 Профиль Отправить личное сообщение  
 
   Похожие торренты   Автор   Торрент   Размер 
В этой теме нет новых непрочитанных сообщений. Смолфут / Smallfoot [Мультфильм, мюзикл, фэнтези, 2018] BDRip, Dub [Лицензия]

salma3

0 | 0

1.46 ГБ

В этой теме нет новых непрочитанных сообщений. Смолфут / Smallfoot [Мультфильм, мюзикл, фэнтези, 2018] Blu-Ray 1080p, Dub [Лицензия]

salma3

0 | 0

43.76 ГБ

В этой теме нет новых непрочитанных сообщений. Смолфут / Smallfoot [Мультфильм, мюзикл, фэнтези, 2018] BDRip 1080p, Dub [Лицензия] [3D-Video]

salma3

0 | 0

9.02 ГБ

В этой теме нет новых непрочитанных сообщений. Смолфут / Smallfoot [Мультфильм, мюзикл, фэнтези, 2018] BDRemux 1080p, Dub [Лицензия] [3D-Video]

salma3

0 | 0

32.11 ГБ

В этой теме нет новых непрочитанных сообщений. Смолфут / Smallfoot [Мультфильм, мюзикл, фэнтези, 2018] BDRip, Dub [iTunes]

salma3

0 | 0

1.42 ГБ

В этой теме нет новых непрочитанных сообщений. Смолфут / Smallfoot [Мультфильм, мюзикл, фэнтези, 2018] BDRip 1080p, Dub [iTunes]

salma3

0 | 0

5.53 ГБ

В этой теме нет новых непрочитанных сообщений. Смолфут / Smallfoot [Мультфильм, мюзикл, фэнтези, 2018] BDRip 1080p, Dub [iTunes] [3D-Video]

salma3

22 | 0

8.9 ГБ


Начать новую тему Ответить на тему  [ 1 сообщение ] 




Для Мосгорсуда, Роскомнадзора и рекламодателей:: rstracker[собака]yandex.ru
cron