COVID-19 - Последняя информация о коронавирусе на сайте Минздрава




Торрент файл
скачать торрент магнет ссылка Добавлен: 06 апр 2019, 11:21
Размер: 7.22 ГБ
Сидеров: 0
Личеров: 1
Статус: (salma3)
Автор

СообщениеДобавлено: 06 апр 2019, 11:21 

Не в сети
Супермодератор
Аватара пользователя
Дата регистрации:
15 фев 2012, 16:44
Возраст: 31
Спасибо: 8273 / 2148
Сообщения: 96473
Год выхода: 2018
Жанр: Мультфильм, фэнтези, приключения
Режиссер: Александр Астье, Луи Клиши

В ролях: Кристиан Клавье, Гийом Бриа, Алекс Лутс, Александр Астье, Эли Семун, Даниэль Месгиш, Бернар Алан, Франсуа Морель, Лионель Астье, Флоренс Форести

О фильме:
Могучие галлы издревле черпали силу в секретном напитке, который готовил великий старец. Но пришла беда, откуда не ждали — почтенный друид свалился с дерева и сломал обе ноги. Теперь Астериксу и Обеликсу предстоит отправиться в опасное путешествие, чтобы отыскать нового друида, достойного постичь рецепт тайного зелья.



Страна: Франция
Продолжительность: 01:24:55
Перевод: Дублированный [iTunes]

Качество: BDRip 1080p
Видео: MPEG-4 AVC, 1920x804, 10.8 Mbit/s, 24 fps
Аудио #01: 48 kHz, AC3, 5.1, 384 Kbps | iTunes | RUS
Аудио #02: 48 kHz, AC3, 5.1, 384 Kbps | iTunes | UKR
Аудио #03: 48 kHz, AC3, 5.1, 640 Kbps | Оригинал | FRE
Субтитры: Русские (Full), французские

General
Unique ID : 100555392469349283735015406288678961998 (0x4BA6439EDA027257F80582A45400434E)
Complete name : D:Video111Asterix.Le.Secret.de.la.Potion.Magique.2018.BDRip.1080p.seleZen.mkv
Format : Matroska
Format version : Version 4
File size : 7.22 GiB
Duration : 1 h 24 min
Overall bit rate : 12.2 Mb/s
Movie name : Asterix Le Secret de la Potion Magique 2018 from селезень
Encoded date : UTC 2019-04-06 04:25:12
Writing application : mkvmerge v32.0.0 ('Astral Progressions') 64-bit
Writing library : libebml v1.3.7 + libmatroska v1.5.0

Video
ID : 1
Format : AVC
Format/Info : Advanced Video Codec
Format profile : High@L4.1
Format settings : CABAC / 5 Ref Frames
Format settings, CABAC : Yes
Format settings, ReFrames : 5 frames
Codec ID : V_MPEG4/ISO/AVC
Duration : 1 h 24 min
Bit rate : 10.8 Mb/s
Width : 1 920 pixels
Height : 804 pixels
Display aspect ratio : 2.40:1
Frame rate mode : Constant
Frame rate : 24.000 FPS
Color space : YUV
Chroma subsampling : 4:2:0
Bit depth : 8 bits
Scan type : Progressive
Bits/(Pixel*Frame) : 0.291
Stream size : 6.38 GiB (88%)
Title : seleZen
Writing library : x264 core 148 r2705kMod 3f5ed56
Encoding settings : cabac=1 / ref=5 / deblock=1:-2:-2 / analyse=0x3:0x133 / me=umh / subme=10 / psy=1 / fade_compensate=0.00 / psy_rd=1.20:0.05 / mixed_ref=1 / me_range=32 / chroma_me=1 / trellis=2 / 8x8dct=1 / cqm=0 / deadzone=21,11 / fast_pskip=0 / chroma_qp_offset=-3 / threads=12 / lookahead_threads=2 / sliced_threads=0 / nr=0 / decimate=0 / interlaced=0 / bluray_compat=0 / constrained_intra=0 / fgo=0 / bframes=8 / b_pyramid=2 / b_adapt=2 / b_bias=0 / direct=3 / weightb=1 / open_gop=0 / weightp=2 / keyint=240 / keyint_min=24 / scenecut=40 / intra_refresh=0 / rc_lookahead=50 / rc=2pass / mbtree=0 / bitrate=10764 / ratetol=1.0 / qcomp=0.60 / qpmin=0 / qpmax=51 / qpstep=4 / cplxblur=20.0 / qblur=0.5 / vbv_maxrate=50000 / vbv_bufsize=62500 / nal_hrd=none / filler=0 / ip_ratio=1.40 / pb_ratio=1.30 / aq=3:0.80
Language : English
Default : Yes
Forced : No

Audio #1
ID : 2
Format : AC-3
Format/Info : Audio Coding 3
Commercial name : Dolby Digital
Codec ID : A_AC3
Duration : 1 h 24 min
Bit rate mode : Constant
Bit rate : 384 kb/s
Channel(s) : 6 channels
Channel layout : L R C LFE Ls Rs
Sampling rate : 48.0 kHz
Frame rate : 31.250 FPS (1536 SPF)
Bit depth : 16 bits
Compression mode : Lossy
Stream size : 233 MiB (3%)
Title : iTunes
Language : Russian
Service kind : Complete Main
Default : Yes
Forced : Yes

Audio #2
ID : 3
Format : AC-3
Format/Info : Audio Coding 3
Commercial name : Dolby Digital
Codec ID : A_AC3
Duration : 1 h 24 min
Bit rate mode : Constant
Bit rate : 384 kb/s
Channel(s) : 6 channels
Channel layout : L R C LFE Ls Rs
Sampling rate : 48.0 kHz
Frame rate : 31.250 FPS (1536 SPF)
Bit depth : 16 bits
Compression mode : Lossy
Stream size : 233 MiB (3%)
Title : iTunes
Language : Ukrainian
Service kind : Complete Main
Default : No
Forced : No

Audio #3
ID : 4
Format : AC-3
Format/Info : Audio Coding 3
Commercial name : Dolby Digital
Codec ID : A_AC3
Duration : 1 h 24 min
Bit rate mode : Constant
Bit rate : 640 kb/s
Channel(s) : 6 channels
Channel layout : L R C LFE Ls Rs
Sampling rate : 48.0 kHz
Frame rate : 31.250 FPS (1536 SPF)
Bit depth : 16 bits
Compression mode : Lossy
Stream size : 389 MiB (5%)
Title : Original
Language : French
Service kind : Complete Main
Default : No
Forced : No

Text
ID : 5
Format : UTF-8
Codec ID : S_TEXT/UTF8
Codec ID/Info : UTF-8 Plain Text
Duration : 1 h 17 min
Bit rate : 120 b/s
Count of elements : 921
Stream size : 68.6 KiB (0%)
Title : Full
Language : Russian
Default : No
Forced : No

Menu
00:00:00.000 : fr:Глава 01
00:06:16.042 : fr:Глава 02
00:15:43.250 : fr:Глава 03
00:21:45.167 : fr:Глава 04
00:28:47.792 : fr:Глава 05
00:35:00.000 : fr:Глава 06
00:42:39.458 : fr:Глава 07
00:50:30.333 : fr:Глава 08
00:57:33.708 : fr:Глава 09
01:04:05.458 : fr:Глава 10
01:13:32.000 : fr:Глава 11
01:21:07.333 : fr:Глава 12


Релиз от:


_________________
Проголосуй за трекер Открытый торрент трекер - RUS-MEDIA.ORG

Проголосуй Открытый торрент трекер - RUS-MEDIA.ORG


Скачать книги и аудио книги через торрент


Вернуться к началу
 Профиль Отправить личное сообщение  
 
   Похожие торренты   Автор   Торрент   Размер 
В этой теме нет новых непрочитанных сообщений. Астерикс и тайное зелье / Asterix: Le secret de la potion magique [Мультфильм, фэнтези, приключения, 2018] BDRemux 1080p, Dub [iTunes] [3D-Video]

salma3

3 | 1

21.7 ГБ

В этой теме нет новых непрочитанных сообщений. Астерикс и тайное зелье / Astérix: Le secret de la potion magique [Мультфильм, фэнтези, 2018] HDRip, Dub [iTunes]

salma3

1133 | 30

1.46 ГБ

В этой теме нет новых непрочитанных сообщений. Астерикс и Обеликс: Миссия Клеопатра / Asterix & Obelix: Mission Cleopatre [фэнтези, комедия, приключения, 2002] HDRip-AVC, Dub

salma3

0 | 0

1.08 ГБ

В этой теме нет новых непрочитанных сообщений. Астерикс на олимпийских играх / Asterix aux jeux olympiques [Комедия, приключения, семейный, 2008] BDRip 720p, Dub

NTL

2 | 0

4.36 ГБ

В этой теме нет новых непрочитанных сообщений. Смолфут / Smallfoot [Мультфильм, мюзикл, фэнтези, 2018] BDRip 1080p, Dub [iTunes]

salma3

0 | 0

5.53 ГБ

В этой теме нет новых непрочитанных сообщений. Трон эльфов / Throne of Elves [Мультфильм, фэнтези, приключения, 2016] BDRip-HEVC 1080p, Dub [iTunes]

salma3

36 | 24

7.2 ГБ

В этой теме нет новых непрочитанных сообщений. Смолфут / Smallfoot [Мультфильм, мюзикл, фэнтези, 2018] BDRip 1080p, Dub [iTunes] [3D-Video]

salma3

22 | 0

8.9 ГБ


Начать новую тему Ответить на тему  [ 1 сообщение ] 




Для Мосгорсуда, Роскомнадзора и рекламодателей:: rstracker[собака]yandex.ru
cron