COVID-19 - Последняя информация о коронавирусе на сайте Минздрава




Торрент файл
скачать торрент магнет ссылка Добавлен: 10 мар 2019, 21:19
Размер: 1.62 ГБ
Сидеров: 0
Личеров: 0
Статус: (salma3)
Автор

СообщениеДобавлено: 10 мар 2019, 21:19 

В сети
Супермодератор
Аватара пользователя
Дата регистрации:
15 фев 2012, 16:44
Возраст: 31
Спасибо: 8273 / 2148
Сообщения: 96527
Год выпуска: 2018
Жанр: Мультфильм, комедия, приключения
Режиссер: Бенуа Годбут, Жан-Франсуа Пуле, Франсуа Бриссон

В ролях: Соня Болл, Люсинда Дэвис, Тод Феннел, Ноэль Фишер, Доун Форд, Анджела Галуппо, Холли Дж. Франкель, Элизабет Макрей, Сатине Скарлет Монтас, Дон Шеперд

О фильме:
В маленькой живописной деревушке на заснеженных горных склонах Канады детвора устраивает настоящее спортивное состязание — гонки! Каждый участник подходит к делу со всей ответственностью и сам мастерит себе санки. Но, как и в любом другом виде спорта, в снежных гонках не обходится без обмана, ведь победить хочет каждый!



Страна: Канада
Продолжительность: 01:29:32
Перевод: Дублированный | iTunes

Файл
Качество:BDRip-AVC
Видео: 1024x428 (2.40:1), 23,976 fps, x264 ~1 763 kbps avg, 0.168 bit/pixel
Аудио1: 48 kHz, AC3 Dolby Digital Plus, 3/2 (L,C,R,l,r) + LFE ch, ~384.00 kbps avg | RUS
Аудио2: 48 kHz, AC3 Dolby Digital Plus, 3/2 (L,C,R,l,r) + LFE ch, ~448.00 kbps avg | ENG

Общее
Уникальный идентификатор : 74761338433180536913824796762378625732 (0x383E8291CA7A7C9E96386A07481C62C4)
Полное имя : F:OlLanDGroupRacetime.2018.BDRip(AVC).OllanDGroup.mkv
Формат : Matroska
Версия формата : Version 4 / Version 2
Размер файла : 1,62 Гбайт
Продолжительность : 1 ч. 29 м.
Общий поток : 2597 Кбит/сек
Название фильма : Racetime.2018 #TorpedoUK#
Дата кодирования : UTC 2019-03-10 15:38:11
Программа кодирования : mkvmerge v29.0.0 ('Like It Or Not') 64-bit
Библиотека кодирования : libebml v1.3.6 + libmatroska v1.4.9

Видео
Идентификатор : 1
Формат : AVC
Формат/Информация : Advanced Video Codec
Профиль формата : High@L4.1
Параметр CABAC формата : Да
Параметр ReFrames формата : 10 кадров
Идентификатор кодека : V_MPEG4/ISO/AVC
Продолжительность : 1 ч. 29 м.
Битрейт : 1763 Кбит/сек
Ширина : 1024 пикселя
Высота : 428 пикселей
Соотношение сторон : 2,40:1
Режим частоты кадров : Постоянный
Частота кадров : 23,976 (24000/1001) кадра/сек
Цветовое пространство : YUV
Субдискретизация насыщенности : 4:2:0
Битовая глубина : 8 бит
Тип развёртки : Прогрессивная
Бит/(Пиксели*Кадры) : 0.168
Размер потока : 1,10 Гбайт (68%)
Библиотека кодирования : x264 core 146 r2538 121396c
Настройки программы : cabac=1 / ref=10 / deblock=1:-3:-3 / analyse=0x3:0x113 / me=umh / subme=10 / psy=1 / psy_rd=0.99:0.04 / mixed_ref=1 / me_range=48 / chroma_me=1 / trellis=2 / 8x8dct=1 / cqm=0 / deadzone=21,11 / fast_pskip=1 / chroma_qp_offset=-3 / threads=6 / lookahead_threads=1 / sliced_threads=0 / nr=0 / decimate=1 / interlaced=0 / bluray_compat=0 / constrained_intra=0 / bframes=11 / b_pyramid=2 / b_adapt=2 / b_bias=0 / direct=3 / weightb=1 / open_gop=0 / weightp=2 / keyint=240 / keyint_min=23 / scenecut=40 / intra_refresh=0 / rc_lookahead=40 / rc=2pass / mbtree=0 / bitrate=1763 / ratetol=1.0 / qcomp=0.60 / qpmin=0 / qpmax=69 / qpstep=4 / cplxblur=20.0 / qblur=0.5 / vbv_maxrate=50000 / vbv_bufsize=62500 / nal_hrd=none / filler=0 / ip_ratio=1.40 / pb_ratio=1.30 / aq=1:1.00
Язык : English
Default : Да
Forced : Нет

Аудио #1
Идентификатор : 2
Формат : AC-3
Формат/Информация : Audio Coding 3
Расширение режима : CM (complete main)
Параметр Endianness формата : Big
Идентификатор кодека : A_AC3
Продолжительность : 1 ч. 29 м.
Вид битрейта : Постоянный
Битрейт : 384 Кбит/сек
Каналы : 6 каналов
Расположение каналов : Front: L C R, Side: L R, LFE
Частота : 48,0 КГц
Частота кадров : 31,250 кадров/сек (1536 spf)
Битовая глубина : 16 бит
Метод сжатия : С потерями
Размер потока : 246 Мбайт (15%)
Заголовок : DUB [iTunes]
Язык : Russian
Default : Да
Forced : Нет

Аудио #2
Идентификатор : 3
Формат : AC-3
Формат/Информация : Audio Coding 3
Расширение режима : CM (complete main)
Параметр Endianness формата : Big
Идентификатор кодека : A_AC3
Продолжительность : 1 ч. 29 м.
Вид битрейта : Постоянный
Битрейт : 448 Кбит/сек
Каналы : 6 каналов
Расположение каналов : Front: L C R, Side: L R, LFE
Частота : 48,0 КГц
Частота кадров : 31,250 кадров/сек (1536 spf)
Битовая глубина : 16 бит
Метод сжатия : С потерями
Размер потока : 287 Мбайт (17%)
Заголовок : [Original]
Язык : English
Default : Нет
Forced : Нет

Меню
00:00:00.000 : en:Chapter 01
00:06:33.017 : en:Chapter 02
00:12:33.377 : en:Chapter 03
00:18:52.840 : en:Chapter 04
00:22:58.377 : en:Chapter 05
00:27:34.361 : en:Chapter 06
00:31:56.998 : en:Chapter 07
00:38:12.957 : en:Chapter 08
00:44:17.988 : en:Chapter 09
00:48:09.887 : en:Chapter 10
00:53:56.775 : en:Chapter 11
00:59:58.261 : en:Chapter 12
01:05:59.956 : en:Chapter 13
01:11:40.796 : en:Chapter 14
01:17:42.824 : en:Chapter 15
01:22:31.780 : en:Chapter 16




Релиз от:


_________________
Проголосуй за трекер Открытый торрент трекер - RUS-MEDIA.ORG

Проголосуй Открытый торрент трекер - RUS-MEDIA.ORG


Скачать книги и аудио книги через торрент


Вернуться к началу
 Профиль Отправить личное сообщение  
 
   Похожие торренты   Автор   Торрент   Размер 
В этой теме нет новых непрочитанных сообщений. Снежные гонки / Racetime [Мультфильм, комедия, приключения, 2018] BDRip, Dub [iTunes]

salma3

0 | 0

1.42 ГБ

В этой теме нет новых непрочитанных сообщений. Снежные гонки / Racetime [Мультфильм, комедия, приключения, 2018] BDRemux 1080p, Dub [iTunes]

salma3

0 | 0

17.45 ГБ

В этой теме нет новых непрочитанных сообщений. Пчёлка Майя и Кубок мёда / Maya the Bee: The Honey Games [Мультфильм, комедия, приключения, 2018] BDRip-AVC, Dub [iTunes]

salma3

0 | 0

1.83 ГБ

В этой теме нет новых непрочитанных сообщений. Стражи Арктики / Arctic Justice [мультфильм, комедия, приключения, 2019] BDRip-AVC, Dub [iTunes]

salma3

0 | 0

1.46 ГБ

В этой теме нет новых непрочитанных сообщений. 30 безумных желаний / Then Came You [Драма, комедия, приключения, 2018] BDRip-AVC, Dub [iTunes]

salma3

0 | 0

1.91 ГБ

В этой теме нет новых непрочитанных сообщений. Снежные псы / Snow Dogs [комедия, приключения, семейный, 2002] BDRip 1080p, Dub

salma3

0 | 1

10.12 ГБ

В этой теме нет новых непрочитанных сообщений. Букашки 2 / Minuscule - Les mandibules du bout du monde [Мультфильм, комедия, приключения, 2018] BDRip, Dub [iTunes]

salma3

0 | 0

1.46 ГБ


Начать новую тему Ответить на тему  [ 1 сообщение ] 




Для Мосгорсуда, Роскомнадзора и рекламодателей:: rstracker[собака]yandex.ru
cron