COVID-19 - Последняя информация о коронавирусе на сайте Минздрава




Торрент файл
скачать торрент магнет ссылка Добавлен: 27 дек 2018, 12:33
Размер: 5.53 ГБ
Сидеров: 0
Личеров: 0
Статус: (salma3)
Автор

СообщениеДобавлено: 27 дек 2018, 12:33 

В сети
Супермодератор
Аватара пользователя
Дата регистрации:
15 фев 2012, 16:44
Возраст: 31
Спасибо: 8280 / 2148
Сообщения: 96717
Год выпуска: 2018
Жанр: Мультфильм, мюзикл, фэнтези
Режиссер: Кэри Киркпатрик, Джейсон Рейсиг

В ролях: Ченнинг Татум, Джеймс Корден, Зендая Колеман, Коммон, Леброн Джеймс, Дэнни ДеВито, Джина Родригез, Яра Шахиди, Эли Генри, Джимми Татро

О фильме:
«Смолфут» переворачивает миф о бигфутах с ног на голову. В нем молодой находчивый йети сталкивается с тем, что по его глубокому убеждению, не существует — человека. Новости о «смолфуте» приносят ему славу и шанс завоевать девушку его мечты. А еще — вызывают переполох среди простых йети, которые теперь гадают, что же еще обитает в большом мире за пределами их маленькой заснеженной деревушки.



Страна: США
Продолжительность: 01:36:17
Перевод: Дублированный | iTunes

Файл
Формат: MKV, BDRip 1080p
Видео: MPEG-4 AVC, 7838 Кбит/с, 1920x800
Aудио#1: [RUS] AC3 | 48 KHz | 5.1 (Front: L С R Side: L R) + LFE | ~384 kbps
Субтитры: русские форсированные и полные
Релиз от:




Общее
Уникальный идентификатор : 209342644864325545738668334000425833079 (0x9D7DED4543B7BCEFABDDFE54649A9277)
Полное имя : H:Smallfoot.(2018).BDRip-1080p.MegaPeer.(qqss44).mkv
Формат : Matroska
Версия формата : Version 2
Размер файла : 5,53 Гбайт
Продолжительность : 1 ч. 36 м.
Общий поток : 8224 Кбит/сек
Название фильма : Smallfoot.(2018).BDRip-1080p.MegaPeer.(qqss44)
Дата кодирования : UTC 2018-12-26 21:10:59
Программа кодирования : mkvmerge v7.8.0 ('River Man') 32bit built on Apr 3 2015 12:11:22
Библиотека кодирования : libebml v1.3.1 + libmatroska v1.4.2

Видео
Идентификатор : 1
Формат : AVC
Формат/Информация : Advanced Video Codec
Профиль формата : High@L4.1
Параметр CABAC формата : Да
Параметр ReFrames формата : 5 кадров
Идентификатор кодека : V_MPEG4/ISO/AVC
Продолжительность : 1 ч. 36 м.
Битрейт : 7838 Кбит/сек
Ширина : 1920 пикселей
Высота : 800 пикселей
Соотношение сторон : 2,40:1
Режим частоты кадров : Постоянный
Частота кадров : 23,976 (24000/1001) кадра/сек
Цветовое пространство : YUV
Субдискретизация насыщенности : 4:2:0
Битовая глубина : 8 бит
Тип развёртки : Прогрессивная
Бит/(Пиксели*Кадры) : 0.213
Размер потока : 5,16 Гбайт (93%)
Библиотека кодирования : x264 core 152 r2851 ba24899
Настройки программы : cabac=1 / ref=5 / deblock=1:0:0 / analyse=0x3:0x113 / me=umh / subme=11 / psy=1 / psy_rd=1.00:0.00 / mixed_ref=1 / me_range=32 / chroma_me=1 / trellis=2 / 8x8dct=1 / cqm=0 / deadzone=21,11 / fast_pskip=0 / chroma_qp_offset=-2 / threads=12 / lookahead_threads=2 / sliced_threads=0 / nr=0 / decimate=0 / interlaced=0 / bluray_compat=0 / constrained_intra=0 / bframes=8 / b_pyramid=2 / b_adapt=2 / b_bias=0 / direct=3 / weightb=1 / open_gop=0 / weightp=2 / keyint=250 / keyint_min=23 / scenecut=40 / intra_refresh=0 / rc_lookahead=40 / rc=2pass / mbtree=0 / bitrate=7838 / ratetol=1.0 / qcomp=0.70 / qpmin=0 / qpmax=69 / qpstep=4 / cplxblur=20.0 / qblur=0.5 / vbv_maxrate=50000 / vbv_bufsize=62500 / nal_hrd=none / filler=0 / ip_ratio=1.40 / pb_ratio=1.30 / aq=3:0.70
Язык : English
Default : Да
Forced : Нет

Аудио
Идентификатор : 2
Формат : AC-3
Формат/Информация : Audio Coding 3
Расширение режима : CM (complete main)
Параметр Endianness формата : Big
Идентификатор кодека : A_AC3
Продолжительность : 1 ч. 36 м.
Вид битрейта : Постоянный
Битрейт : 384 Кбит/сек
Каналы : 6 каналов
Расположение каналов : Front: L C R, Side: L R, LFE
Частота : 48,0 КГц
Частота кадров : 31,250 кадров/сек (1536 spf)
Метод сжатия : С потерями
Размер потока : 264 Мбайт (5%)
Язык : Russian
Default : Да
Forced : Нет

Текст
Идентификатор : 3
Формат : UTF-8
Идентификатор кодека : S_TEXT/UTF8
Идентификатор кодека/Информация : UTF-8 Plain Text
Заголовок : FORCED
Язык : Russian
Default : Да
Forced : Нет

Меню
00:00:00.000 : en:Chapter 01
00:09:56.095 : en:Chapter 02
00:21:36.295 : en:Chapter 03
00:32:10.345 : en:Chapter 04
00:38:33.602 : en:Chapter 05
00:49:59.329 : en:Chapter 06
00:55:37.167 : en:Chapter 07
01:01:53.209 : en:Chapter 08
01:12:04.236 : en:Chapter 09
01:18:26.076 : en:Chapter 10
01:26:16.462 : en:Chapter 11
01:31:12.508 : en:Chapter 12



_________________
Проголосуй за трекер Открытый торрент трекер - RUS-MEDIA.ORG

Проголосуй Открытый торрент трекер - RUS-MEDIA.ORG


Скачать книги и аудио книги через торрент


Вернуться к началу
 Профиль Отправить личное сообщение  
 
   Похожие торренты   Автор   Торрент   Размер 
В этой теме нет новых непрочитанных сообщений. Смолфут / Smallfoot [Мультфильм, мюзикл, фэнтези, 2018] BDRip 1080p, Dub [iTunes] [3D-Video]

salma3

22 | 0

8.9 ГБ

В этой теме нет новых непрочитанных сообщений. Смолфут / Smallfoot [Мультфильм, мюзикл, фэнтези, 2018] BDRip, Dub [iTunes]

salma3

0 | 0

1.42 ГБ

В этой теме нет новых непрочитанных сообщений. Смолфут / Smallfoot [Мультфильм, мюзикл, фэнтези, 2018] BDRip 1080p, Dub [Лицензия] [3D-Video]

salma3

0 | 0

9.02 ГБ

В этой теме нет новых непрочитанных сообщений. Смолфут / Smallfoot [Мультфильм, мюзикл, фэнтези, 2018] BDRip, Dub [Лицензия]

salma3

0 | 0

1.46 ГБ

В этой теме нет новых непрочитанных сообщений. Смолфут / Smallfoot [Мультфильм, мюзикл, фэнтези, 2018] Blu-Ray 1080p, Dub [Лицензия]

salma3

0 | 0

43.76 ГБ

В этой теме нет новых непрочитанных сообщений. Смолфут / Smallfoot [Мультфильм, мюзикл, фэнтези, 2018] BDRemux 1080p, Dub [Лицензия] [3D-Video]

salma3

0 | 0

32.11 ГБ

В этой теме нет новых непрочитанных сообщений. Смолфут / Smallfoot [мультфильм, мюзикл, фэнтези, 2018] DVD9, Dub [Лицензия]

salma3

0 | 1

5.77 ГБ


Начать новую тему Ответить на тему  [ 1 сообщение ] 




Для Мосгорсуда, Роскомнадзора и рекламодателей:: rstracker[собака]yandex.ru
cron