COVID-19 - Последняя информация о коронавирусе на сайте Минздрава




Торрент файл
скачать торрент магнет ссылка Добавлен: 22 дек 2018, 12:26
Размер: 2.73 ГБ
Сидеров: 0
Личеров: 0
Статус: (salma3)
Автор

СообщениеДобавлено: 22 дек 2018, 12:26 

Не в сети
Супермодератор
Аватара пользователя
Дата регистрации:
15 фев 2012, 16:44
Возраст: 31
Спасибо: 8280 / 2148
Сообщения: 96711
Год выхода: 1998
Жанр: мультфильм, комедия, приключения
Режиссер: Эрик Дарнелл, Тим Джонсон

В ролях: Вуди Аллен, Дэн Эйкройд, Энн Бэнкрофт, Джейн Куртин, Дэнни Гловер, Джин Хэкмен, Дженнифер Лопез, Джон Махони, Пол Мазурски

О фильме:
Большой муравейник поделён на две части: там живут муравьи-рабочие и муравьи-солдаты. Рабочие трудятся с утра до ночи, а солдаты воюют с термитами под командованием властного и завистливого генерала Мэндибала. Так было всегда. И никому, кроме муравья Антца, работающего на строительстве туннеля, не приходит в голову, что всё может быть по-другому.
Однажды в бар на танцы тайно приходит принцесса Бала и там знакомится с Антцом. Он влюбляется в красавицу с первого взгляда. Чтобы ещё хоть раз увидеть её, Антц меняется местами с приятелем-солдатом Вивером и отправляется на военный парад не ведая, что ждёт его впереди...



Страна: США
Продолжительность: 01:23:21
Перевод: Профессиональный (полное дублирование), профессиональный (многоголосый закадровый)

Файл
Кодек: H.264
Качество: BDRip 720р от SuperMin
Видео: 1280x696 (1.85:1), 2707 kbps, 23.976 fps
Звук:
Русский (AC-3, 6ch, 384 kbps) - Дубляж, iTunes Russia
Русский (AC-3, 2ch, 256 kbps) - Дубляж, AB Video
Русский (AC-3, 2ch, 256 kbps) - Многоголосый закадровый, Премьер Видео Фильм
Русский (AC-3, 6ch, 448 kbps) - Многоголосый закадровый, R5
Английский (AC-3, 6ch, 640 kbps)
Субтитры: Русские, английские

x264 [info]: frame I:1023 Avg QP:17.81 size:105263
x264 [info]: frame P:26964 Avg QP:19.12 size: 33739
x264 [info]: frame B:91941 Avg QP:21.96 size: 7344
x264 [info]: consecutive B-frames: 2.2% 2.9% 15.0% 12.6% 14.4% 45.9% 5.4% 0.7% 0.8%
x264 [total]: encoded 119928 frames, 4.50 fps, 2707.16 kb/s

General
Unique ID : 177138766356664154506979750420422740114 (0x8543AF793EE11B0E96CE3B5D81BE4892)
Complete name : H:МУЛЬТЫМуравей Антц (1998).mkv
Format : Matroska
Format version : Version 4 / Version 2
File size : 2.73 GiB
Duration : 1 h 23 min
Overall bit rate : 4 694 kb/s
Movie name : Муравей Антц / Antz (1998) - #LORDKILL#
Encoded date : UTC 2018-12-22 05:59:55
Writing application : mkvmerge v9.5.0 ('Quiet Fire') 64bit
Writing library : libebml v1.3.4 + libmatroska v1.4.5

Video
ID : 1
Format : AVC
Format/Info : Advanced Video Codec
Format profile : High@L4.1
Format settings, CABAC : Yes
Format settings, ReFrames : 9 frames
Codec ID : V_MPEG4/ISO/AVC
Duration : 1 h 23 min
Bit rate : 2 707 kb/s
Width : 1 280 pixels
Height : 696 pixels
Display aspect ratio : 1.85:1
Frame rate mode : Constant
Frame rate : 23.976 (24000/1001) FPS
Color space : YUV
Chroma subsampling : 4:2:0
Bit depth : 8 bits
Scan type : Progressive
Bits/(Pixel*Frame) : 0.127
Stream size : 1.58 GiB (58%)
Writing library : x264 core 146 r2538 121396c
Encoding settings : cabac=1 / ref=9 / deblock=1:-1:-1 / analyse=0x3:0x113 / me=umh / subme=11 / psy=1 / psy_rd=1.00:0.15 / mixed_ref=1 / me_range=32 / chroma_me=1 / trellis=2 / 8x8dct=1 / cqm=0 / deadzone=21,11 / fast_pskip=0 / chroma_qp_offset=-3 / threads=12 / lookahead_threads=2 / sliced_threads=0 / nr=0 / decimate=1 / interlaced=0 / bluray_compat=0 / constrained_intra=0 / bframes=8 / b_pyramid=2 / b_adapt=2 / b_bias=0 / direct=1 / weightb=1 / open_gop=0 / weightp=2 / keyint=240 / keyint_min=23 / scenecut=40 / intra_refresh=0 / rc=crf / mbtree=0 / crf=19.5 / qcomp=0.60 / qpmin=0 / qpmax=69 / qpstep=4 / ip_ratio=1.40 / pb_ratio=1.30 / aq=1:1.00
Language : English
Default : Yes
Forced : No

Audio #1
ID : 2
Format : AC-3
Format/Info : Audio Coding 3
Mode extension : CM (complete main)
Format settings, Endianness : Big
Codec ID : A_AC3
Duration : 1 h 23 min
Bit rate mode : Constant
Bit rate : 384 kb/s
Channel(s) : 6 channels
Channel positions : Front: L C R, Side: L R, LFE
Sampling rate : 48.0 kHz
Frame rate : 31.250 FPS (1536 spf)
Bit depth : 16 bits
Compression mode : Lossy
Stream size : 229 MiB (8%)
Title : Дубляж - iTunes
Language : Russian
Default : Yes
Forced : No

Audio #2
ID : 3
Format : AC-3
Format/Info : Audio Coding 3
Mode extension : CM (complete main)
Format settings, Endianness : Big
Codec ID : A_AC3
Duration : 1 h 23 min
Bit rate mode : Constant
Bit rate : 256 kb/s
Channel(s) : 2 channels
Channel positions : Front: L R
Sampling rate : 48.0 kHz
Frame rate : 31.250 FPS (1536 spf)
Bit depth : 16 bits
Compression mode : Lossy
Stream size : 153 MiB (5%)
Title : Дубляж - AB Video
Language : Russian
Default : No
Forced : No

Audio #3
ID : 4
Format : AC-3
Format/Info : Audio Coding 3
Mode extension : CM (complete main)
Format settings, Endianness : Big
Codec ID : A_AC3
Duration : 1 h 23 min
Bit rate mode : Constant
Bit rate : 256 kb/s
Channel(s) : 2 channels
Channel positions : Front: L R
Sampling rate : 48.0 kHz
Frame rate : 31.250 FPS (1536 spf)
Bit depth : 16 bits
Compression mode : Lossy
Stream size : 153 MiB (5%)
Title : MVO - Prem`er Video Film
Language : Russian
Default : No
Forced : No

Audio #4
ID : 5
Format : AC-3
Format/Info : Audio Coding 3
Mode extension : CM (complete main)
Format settings, Endianness : Big
Codec ID : A_AC3
Duration : 1 h 23 min
Bit rate mode : Constant
Bit rate : 448 kb/s
Channel(s) : 6 channels
Channel positions : Front: L C R, Side: L R, LFE
Sampling rate : 48.0 kHz
Frame rate : 31.250 FPS (1536 spf)
Bit depth : 16 bits
Compression mode : Lossy
Stream size : 267 MiB (10%)
Title : MVO - R5
Language : Russian
Default : No
Forced : No

Audio #5
ID : 6
Format : AC-3
Format/Info : Audio Coding 3
Mode extension : CM (complete main)
Format settings, Endianness : Big
Codec ID : A_AC3
Duration : 1 h 23 min
Bit rate mode : Constant
Bit rate : 640 kb/s
Channel(s) : 6 channels
Channel positions : Front: L C R, Side: L R, LFE
Sampling rate : 48.0 kHz
Frame rate : 31.250 FPS (1536 spf)
Bit depth : 16 bits
Compression mode : Lossy
Stream size : 382 MiB (14%)
Title : Original
Language : English
Default : No
Forced : No

Text #1
ID : 7
Format : UTF-8
Codec ID : S_TEXT/UTF8
Codec ID/Info : UTF-8 Plain Text
Duration : 1 h 17 min
Bit rate : 86 b/s
Count of elements : 943
Stream size : 48.7 KiB (0%)
Title : Full
Language : Russian
Default : No
Forced : No

Text #2
ID : 8
Format : UTF-8
Codec ID : S_TEXT/UTF8
Codec ID/Info : UTF-8 Plain Text
Duration : 1 h 18 min
Bit rate : 72 b/s
Count of elements : 1181
Stream size : 42.1 KiB (0%)
Title : Full
Language : English
Default : No
Forced : No

Text #3
ID : 9
Format : UTF-8
Codec ID : S_TEXT/UTF8
Codec ID/Info : UTF-8 Plain Text
Duration : 1 h 18 min
Bit rate : 79 b/s
Count of elements : 1287
Stream size : 46.1 KiB (0%)
Title : Full - SDH
Language : English
Default : No
Forced : No

Menu
00:00:00.000 : en:Chapter 01
00:03:16.988 : en:Chapter 02
00:08:27.590 : en:Chapter 03
00:11:20.096 : en:Chapter 04
00:17:46.565 : en:Chapter 05
00:20:42.991 : en:Chapter 06
00:24:53.492 : en:Chapter 07
00:29:05.535 : en:Chapter 08
00:33:13.241 : en:Chapter 09
00:36:04.036 : en:Chapter 10
00:42:43.185 : en:Chapter 11
00:48:26.069 : en:Chapter 12
00:56:07.906 : en:Chapter 13
00:58:58.660 : en:Chapter 14
01:04:57.935 : en:Chapter 15
01:07:44.977 : en:Chapter 16
01:13:33.826 : en:Chapter 17
01:18:10.727 : en:Chapter 18


_________________
Проголосуй за трекер Открытый торрент трекер - RUS-MEDIA.ORG

Проголосуй Открытый торрент трекер - RUS-MEDIA.ORG


Скачать книги и аудио книги через торрент


Вернуться к началу
 Профиль Отправить личное сообщение  
 
   Похожие торренты   Автор   Торрент   Размер 
В этой теме нет новых непрочитанных сообщений. Приключения Флика / A Bug's Life [Мультфильм, комедия, приключения, семейный, 1998] BDRip 720p, Dub [60 fps]

salma3

6 | 2

5.6 ГБ

В этой теме нет новых непрочитанных сообщений. Человек-муравей и Оса / Ant-Man and the Wasp (Пейтон Рид) [2018 г., фантастика, боевик, комедия, приключения, UHD BDRip-HEVC 1440p | HDR] Dub | Лицензия

zorgi

0 | 0

13.3 ГБ

В этой теме нет новых непрочитанных сообщений. Человек-муравей и Оса / Ant-Man and the Wasp [Фантастика, боевик, приключения, 2018] BDRip, Dub [Лицензия]

salma3

0 | 0

2.18 ГБ

В этой теме нет новых непрочитанных сообщений. Человек-муравей и Оса / Ant-Man and the Wasp [Фантастика, боевик, приключения, 2018] BDRip, Dub [Лицензия]

salma3

0 | 0

1.46 ГБ

В этой теме нет новых непрочитанных сообщений. Человек-муравей и Оса / Ant-Man and the Wasp [фантастика, боевик, приключения, 2018] BDRip 1080p, Dub [iTunes]

salma3

2757 | 628

9.2 ГБ

В этой теме нет новых непрочитанных сообщений. Человек-муравей и Оса / Ant-Man and the Wasp [Фантастика, боевик, приключения, 2018] BDRip 720p, Dub [iTunes]

salma3

0 | 0

4.74 ГБ

В этой теме нет новых непрочитанных сообщений. Человек-муравей и Оса / Ant-Man and the Wasp [Фантастика, боевик, приключения, 2018] BDRip-HEVC 720p, Dub

salma3

24 | 1

2.01 ГБ


Начать новую тему Ответить на тему  [ 1 сообщение ] 




Для Мосгорсуда, Роскомнадзора и рекламодателей:: rstracker[собака]yandex.ru
cron