COVID-19 - Последняя информация о коронавирусе на сайте Минздрава




Торрент файл
скачать торрент магнет ссылка Добавлен: 28 окт 2018, 21:38
Размер: 6.8 ГБ
Сидеров: 29
Личеров: 1
Статус: (salma3)
Автор

СообщениеДобавлено: 28 окт 2018, 21:38 

Не в сети
Супермодератор
Аватара пользователя
Дата регистрации:
15 фев 2012, 16:44
Возраст: 31
Спасибо: 8273 / 2148
Сообщения: 96527
Год выхода: 2017
Жанр: мультфильм, комедия, приключения
Режиссер: Джулио Сото Гарпид

В ролях: Джастин Фелбингер, Линдси Алена, Стивен Хьюз, Льюис Маклауд, Джесс Харнелл, Фил ЛаМарр, Джефф Беннетт, Дэйв Фенной, Боб Берген

О фильме:
К 2100 году люди покинули нашу планету. Но в глубокой впадине на самом дне океана продолжает жить колония удивительных морских существ. Среди них любопытный глубоководный осьминожек Дип и двое его друзей — пугливый удильщик Иво и импульсивная креветка Элис. Однако, когда их дому угрожает опасность, мудрый дедушка Дипа, гигантский осьминог Кракен, отправляет их за помощью на другой конец океана. Друзей и присоединившуюся к ним стеснительную мурену Мойру ждёт целое море опасных и невероятных приключений…



Страна: США Испания Бельгия
Продолжительность: 01:32:25
Перевод: Профессиональный (дублированный) | iTunes

Файл
Кодек: x264
Качество: BDRip 1080p
Видео: MPEG-4 AVC, 9383 Кбит/с, 1920x1040, 23,976 кадра/сек
Аудио #1: Русский (AC3, 6 ch, 384 кбит/с)
Аудио #2: Английский (DTS, 6 ch, 768 кбит/с)

Общее
Уникальный идентификатор : 196542586557738925041921955451762345058 (0x93DCB9ABF152F26F39408385E22B8462)
Полное имя : G:HD фильмы 3Deep.2017.BDRip 1080p.mkv
Формат : Matroska
Версия формата : Version 4 / Version 2
Размер файла : 6,80 Гбайт
Продолжительность : 1 ч. 32 м.
Общий поток : 10,5 Мбит/сек
Название фильма : Deep.2017.BDRip 1080p
Дата кодирования : UTC 2018-10-28 13:23:25
Программа кодирования : mkvmerge v28.2.0 ('The Awakening') 64-bit
Библиотека кодирования : libebml v1.3.6 + libmatroska v1.4.9
DURATION : 01:32:24.640000000
NUMBER_OF_FRAMES : 173270
NUMBER_OF_BYTES : 266142720
_STATISTICS_WRITING_APP : mkvmerge v28.2.0 ('The Awakening') 64-bit
_STATISTICS_WRITING_DATE_UTC : 2018-10-28 13:23:25
_STATISTICS_TAGS : BPS DURATION NUMBER_OF_FRAMES NUMBER_OF_BYTES

Видео
Идентификатор : 1
Формат : AVC
Формат/Информация : Advanced Video Codec
Профиль формата : High@L4.1
Параметр CABAC формата : Да
Параметр ReFrames формата : 4 кадра
Идентификатор кодека : V_MPEG4/ISO/AVC
Продолжительность : 1 ч. 32 м.
Битрейт : 9383 Кбит/сек
Ширина : 1920 пикселей
Высота : 1040 пикселей
Соотношение сторон : 1,85:1
Режим частоты кадров : Постоянный
Частота кадров : 23,976 кадра/сек
Цветовое пространство : YUV
Субдискретизация насыщенности : 4:2:0
Битовая глубина : 8 бит
Тип развёртки : Прогрессивная
Бит/(Пиксели*Кадры) : 0.196
Размер потока : 5,92 Гбайт (87%)
Заголовок : Deep.2017.BDRip 1080p
Библиотека кодирования : x264 core 157 r2935 545de2f
Настройки программы : cabac=1 / ref=4 / deblock=1:1:1 / analyse=0x3:0x133 / me=umh / subme=8 / psy=1 / psy_rd=1.00:0.00 / mixed_ref=1 / me_range=16 / chroma_me=1 / trellis=1 / 8x8dct=1 / cqm=0 / deadzone=21,11 / fast_pskip=0 / chroma_qp_offset=-2 / threads=16 / lookahead_threads=2 / sliced_threads=0 / nr=0 / decimate=1 / interlaced=0 / bluray_compat=0 / constrained_intra=0 / bframes=3 / b_pyramid=2 / b_adapt=2 / b_bias=0 / direct=3 / weightb=1 / open_gop=0 / weightp=2 / keyint=250 / keyint_min=23 / scenecut=40 / intra_refresh=0 / rc_lookahead=50 / rc=2pass / mbtree=1 / bitrate=9383 / ratetol=1.0 / qcomp=0.60 / qpmin=0 / qpmax=69 / qpstep=4 / cplxblur=20.0 / qblur=0.5 / ip_ratio=1.40 / aq=1:1.00
Default : Да
Forced : Нет

Аудио #1
Идентификатор : 2
Формат : AC-3
Формат/Информация : Audio Coding 3
Расширение режима : CM (complete main)
Параметр Endianness формата : Big
Идентификатор кодека : A_AC3
Продолжительность : 1 ч. 32 м.
Вид битрейта : Постоянный
Битрейт : 384 Кбит/сек
Каналы : 6 каналов
Расположение каналов : Front: L C R, Side: L R, LFE
Частота : 48,0 КГц
Битовая глубина : 16 бит
Метод сжатия : С потерями
Размер потока : 254 Мбайт (4%)
Заголовок : Дублированный (iTunes)
Язык : Russian
Default : Да
Forced : Да

Аудио #2
Идентификатор : 3
Формат : DTS
Формат/Информация : Digital Theater Systems
Режим : 16
Параметр Endianness формата : Big
Идентификатор кодека : A_DTS
Продолжительность : 1 ч. 32 м.
Вид битрейта : Постоянный
Битрейт : 768 Кбит/сек
Каналы : 6 каналов
Расположение каналов : Front: L C R, Side: L R, LFE
Частота : 48,0 КГц
Битовая глубина : 16 бит
Метод сжатия : С потерями
Размер потока : 508 Мбайт (7%)
Заголовок : Original (eng)
Язык : English
Default : Нет
Forced : Нет

Меню
00:00:00.000 : en:00:00:00.000
00:07:53.181 : en:00:07:53.181
00:16:39.749 : en:00:16:39.749
00:23:19.690 : en:00:23:19.690
00:29:03.825 : en:00:29:03.825
00:35:58.156 : en:00:35:58.156
00:45:12.126 : en:00:45:12.126
00:53:12.523 : en:00:53:12.523
01:03:25.885 : en:01:03:25.885
01:09:51.312 : en:01:09:51.312
01:18:50.601 : en:01:18:50.601
01:26:38.318 : en:01:26:38.318



Релиз от: funtden


_________________
Проголосуй за трекер Открытый торрент трекер - RUS-MEDIA.ORG

Проголосуй Открытый торрент трекер - RUS-MEDIA.ORG


Скачать книги и аудио книги через торрент


Вернуться к началу
 Профиль Отправить личное сообщение  
 
   Похожие торренты   Автор   Торрент   Размер 
В этой теме нет новых непрочитанных сообщений. Дозор джунглей / Les as de la jungle [Мультфильм, комедия, приключения, семейный, 2017] BDRip 1080p, Dub [iTunes]

salma3

283 | 17

1.99 ГБ

В этой теме нет новых непрочитанных сообщений. Тэд-путешественник и тайна царя Мидаса / Tadeo Jones 2: El secreto del Rey Midas [Мультфильм, комедия, приключения, 2017] BDRip 1080p, Dub [iTunes]

salma3

1146 | 97

7.88 ГБ

В этой теме нет новых непрочитанных сообщений. Реальная белка 2 / The Nut Job 2: Nutty by Nature [Мультфильм, комедия, приключения, 2017] BDRip, Dub [iTunes]

salma3

7343 | 1596

1.42 ГБ

В этой теме нет новых непрочитанных сообщений. Мы – монстры / Happy Family [Мультфильм, ужасы, комедия, 2017] BDRip 1080p, Dub [iTunes]

salma3

0 | 0

8.25 ГБ

В этой теме нет новых непрочитанных сообщений. Тайна Коко / Coco [мультфильм, фэнтези, комедия, 2017] BDRip 1080p, Dub [3D-Video] [iTunes]

salma3

0 | 0

8.09 ГБ

В этой теме нет новых непрочитанных сообщений. Подводная братва / Shark Tale [мультфильм, комедия, приключения, 2004] WEB-DLRip 720p, Dub

salma3

0 | 0

2.83 ГБ

В этой теме нет новых непрочитанных сообщений. В поисках йети / Mission Kathmandu: The Adventures of Nelly & Simon [Мультфильм, комедия, приключения, 2017] WEB-DL 1080p, Dub [iTunes]

salma3

0 | 0

3.26 ГБ


Начать новую тему Ответить на тему  [ 1 сообщение ] 




Для Мосгорсуда, Роскомнадзора и рекламодателей:: rstracker[собака]yandex.ru
cron