Оценка торрента
5 100%  100%  [ 1 ]
4 0%  0%  [ 0 ]
3 0%  0%  [ 0 ]
2 0%  0%  [ 0 ]
1 0%  0%  [ 0 ]
Всего голосов : 1
Торрент файл
скачать торрент магнет ссылка Добавлен: 15 янв 2011, 21:24
Размер: 5.49 ГБ
Сидеров: 1
Личеров: 4
Автор

СообщениеДобавлено: 04 дек 2010, 21:53 

Не в сети
Аватара пользователя
Дата регистрации:
31 окт 2010, 17:50
Спасибо: 18 / 0
Сообщения: 76
Скуби-Ду! Корпорация "Тайна" / Scooby-Doo! Mystery Incorporated


Страна: США
Жанр: Мультфильм, детектив, комедия
Сезон: 1
Серии: 1-3
Продолжительность: 3 х 00:22:00
Год выпуска: 2010
Перевод: Любительский (многоголосый закадровый)
Русские субтитры: нет

Качество: HDTVRip
Формат: AVI
Видео: 624x352 (1.77:1), 23.976 fps, XviD MPEG-4 1732 kbps avg, 0.19-0.28 bit/pixel
Аудио: 44.100 kHz, MPEG Layer 3, 2 ch, ~192.00 kbps avg
Субтитры: отсутствуют

Режиссёр: Курт Геда / Curt Geda
Роли озвучивали: Мэттью Лиллард, Фрэнк Уэлкер, Кейси Касем, Грей Делайл, Минди Кон, Патрик Уорбертон

Описание: В этом новом мультипликационном сериале Скуби-Ду и его команда - Шегги, Фред, Дафна и Велма пытаются рагадать тайны города Кристальная Бухта, города со свой историей, полной жутких сверхъестественных событий.

Релиз:
Перевод: AlexMosF1 (1-2 серии), Jetvis Studio (3 серия)
Озвучка: Студия "Jetvis" (Jet, Vis, smartt, NikelOK)

01 - Опасайтесь зверя из преисподней (Beware the Beast from Below)
02 - Ползучие твари (The Creeping Creatures)
03 - Тайна Грузовика-Призрака(The Secret of the Ghost Rig)
04 - Месть Человека-Краба (Revenge of The Man Crab)
05 - Загадочная Песня (The Song of Mystery)
06 - Легенда об Элис Мей (The Legend of Alice May)
07 - Воплощение страха (In Fear of The Phantom)
08 - Во власти гнома (The Grasp Of the Gnome)
09 - Битва Гуманавтов (Battle Of The Humangonauts)
Внимание! Раздача ведётся путём добавления новых серий; при каждом добавлении создётся новый торрент. Чтобы начать докачку новой серии, пользователям необходимо сделать следующее: (1) остановить скачивание, (2) удалить старый торрент у себя из клиента (старые серии удалять не надо), (3) скачать новый торрент и запустить его у себя в клиенте вместо старого, при этом указать клиенту путь в старую папку куда и должно происходить скачивание новых серий.
Ваш клиент при этом должен произвести хеширование (проверку) старой папки (если не производит сам - помогите ему сделать это), и будет докачивать только те серии которых у вас ещё нет. Старые серии при этом не удаляются, а продолжают раздаваться!
Eсли вы уже удалили старые серии, то предотвратить повторную закачку старых серий можно, отжав галочку в соответсвующих местах при запуске нового торрента. По возможности, желательно не удалять старые серии как можно дольше чтобы релизёр не столько продолжал раздавать старые серии, а смог сконцентрироваться на новых.
General
Complete name : C:\scooby.doo.mystery.incorporated.s01.rus[jetvis.studio]\scooby.doo.mystery.incorporated.s01e01.rus[jetvis.studio].avi
Format : AVI
Format/Info : Audio Video Interleave
File size : 307 MiB
Duration : 22mn 10s
Overall bit rate : 1 934 Kbps
Writing application : VirtualDubMod 1.5.10.2 (build 2542/release)
Writing library : VirtualDubMod build 2542/release
Video #0
ID : 0
Format : MPEG-4 Visual
Format profile : Advanced Simple@L5
Format settings, BVOP : Yes
Format settings, QPel : No
Format settings, GMC : No warppoints
Format settings, Matrix : Custom
Codec ID : XVID
Codec ID/Hint : XviD
Duration : 22mn 10s
Bit rate : 1 732 Kbps
Width : 624 pixels
Height : 352 pixels
Display aspect ratio : 16:9
Frame rate : 23.976 fps
Resolution : 8 bits
Colorimetry : 4:2:0
Scan type : Progressive
Bits/(Pixel*Frame) : 0.329
Stream size : 275 MiB (90%)
Writing library : XviD 1.2.1 (UTC 2008-12-04)
Audio #1
ID : 1
Format : MPEG Audio
Format version : Version 1
Format profile : Layer 3
Codec ID : 55
Codec ID/Hint : MP3
Duration : 22mn 10s
Bit rate mode : Constant
Bit rate : 192 Kbps
Channel(s) : 2 channels
Sampling rate : 44.1 KHz
Stream size : 30.4 MiB (10%)
Alignment : Split accross interleaves
Interleave, duration : 42 ms (1.00 video frame)
Interleave, preload duration : 500 ms




реклама партнёра


Вернуться к началу
 Профиль Отправить личное сообщение  
 
   Похожие торренты   Автор   Торрент   Размер 
В этой теме нет новых непрочитанных сообщений. Скуби-Ду 3: Тайна начинается / Scooby-Doo! The Mystery Begins [фэнтези, комедия, детектив, 2009] BDRip 1080p, Mvo+Sub

salma3

104 | 39

7.53 ГБ

В этой теме нет новых непрочитанных сообщений. Скуби-Ду 3: Тайна начинается / Scooby-Doo! The Mystery Begins [фэнтези, комедия, детектив, семейный, 2009] BDRip, Mvo

salma3

235 | 36

1.45 ГБ

В этой теме нет новых непрочитанных сообщений. Скуби-Ду! Тайна рестлмании / Scooby-Doo! WrestleMania Mystery [мультфильм, 2014] HDRip, Mvo

salma3

146 | 5

1.37 ГБ

В этой теме нет новых непрочитанных сообщений. Скуби-Ду и KISS: Тайна рок-н-ролла / Scooby-Doo! And Kiss: Rock and Roll Mystery (Спайк Брандт, Тони Червоне) [Мультфильм, семейный, 2015] DVDRip, dub [Чистый звук]

Dracon

7 | 0

1.37 ГБ

В этой теме нет новых непрочитанных сообщений. Скуби-Ду! Лунный безумный монстр (Скуби-Ду! Безумие Лунного Монстра) / Scooby-Doo! Moon Monster Madness (Пол МакЭвой) [Мультфильм, ужасы, детектив, комедия, полнометражный, 2015] WEB-DLRip, Mvo

Dracon

207 | 11

1.37 ГБ

В этой теме нет новых непрочитанных сообщений. Скуби-Ду! Лунный безумный монстр (Скуби-Ду! Безумие Лунного Монстра) / Scooby-Doo! Moon Monster Madness (Пол МакЭвой) [Мультфильм, ужасы, детектив, комедия, полнометражный, 2015] WEB-DL 1080p, Mvo+Sub

Dracon

27 | 6

3.1 ГБ

В этой теме нет новых непрочитанных сообщений. Королевы Крика / Scream Queens [02х01-06 из 13] (ужасы, комедия, детектив, пародия, 2016) HDTVRip 720p | Jetvis Studio

marya111

4 | 20

7.35 ГБ


Начать новую тему Ответить на тему  [ 1 сообщение ] 




Для Мосгорсуда, Роскомнадзора и рекламодателей:: mosgorsud-torrent[собачка]yandex.ru