Торрент файл
скачать торрент магнет ссылка Добавлен: 28 авг 2018, 11:18
Размер: 3.27 ГБ
Сидеров: 0
Личеров: 0
Статус: (salma3)
Автор

СообщениеДобавлено: 28 авг 2018, 11:18 

Не в сети
Супермодератор
Аватара пользователя
Дата регистрации:
15 фев 2012, 16:44
Возраст: 29
Спасибо: 7379 / 2147
Сообщения: 76077
Год выхода: 2018
Жанр: Мультфильм, комедия, приключения
Режиссеры: Ноэль Клири, Серджо Делфино, Алекс Стадерманн

В ролях: Коко Джек Гиллис, Бенсон Джек Энтони, Ричард Роксбург, Джастин Кларк, Марни МакКуин, Линда Нго, Кэм Ральф, Джордан Хэа, Сэм Хафт, Питер МакАллум и др.
Роли дублировали: Элиза Мартиросова, Ирина Киреева, Данил Щебланов, Ольга Кузнецова, Лина Иванова и др.

О фильме:
Пчёлка Майя с нетерпением ждёт начала спортивных соревнований между ульями за Кубок мёда. Однако Императрица не только не допускает её улей до игр, но и требует, чтобы они отдали половину своего урожая мёда для питания других спортсменов. Такое положение дел не устраивает пчёлку, и она летит к Императрице, чтобы добиться включения её команды в список участников.



Страна: Германия, Австралия
Продолжительность: 01:24:48
Перевод: Дублированный | iTunes

Файл
Качество: BDRip 720p
Видео: MPEG-4 AVC, 1280x692, 4500 kbps, 23,976 fps
Звук#1: русский, AC3, 5.1 ch, 48 kHz, 384 kbps | iTunes
Звук#2: английский, AC3, 5.1 ch, 48 kHz, 640 kbps | оригинал
Субтитры: английские



General
Уникальный идентификатор : 213961020582914863403064107918683225754 (0xA0F764C610967AAB85C40EB13A333E9A)
Полное имя : F:TorrentMayatheBeeTheHoneyGamesBDRip720p.mkv
Формат : Matroska
Версия формата : Version 4 / Version 2
Размер файла : 3.27 GiB
Продолжительность : 1 h 24 min
Общий поток : 5 526 kb/s
Название фильма : Maya.the.Bee.The.Honey.Games.2018.1080p.BluRay.REMUX.AVC.DTS-HD.MA.5.1-FGT
Дата кодирования : UTC 2018-08-27 12:46:42
Программа кодирования : mkvmerge v9.5.0 ('Quiet Fire') 64bit
Библиотека кодирования : libebml v1.3.4 + libmatroska v1.4.5

Video
Идентификатор : 1
Формат : AVC
Формат/Информация : Advanced Video Codec
Профиль формата : High@L4.1
Настройки формата : CABAC / 9 Ref Frames
Параметр CABAC формата : Yes
Параметр RefFrames формата : 9 frames
Идентификатор кодека : V_MPEG4/ISO/AVC
Продолжительность : 1 h 24 min
Битрейт : 4 500 kb/s
Ширина : 1 280 pixels
Высота : 692 pixels
Соотношение сторон : 1.85:1
Режим частоты кадров : Constant
Частота кадров : 23.976 (24000/1001) FPS
Цветовое пространство : YUV
Субдискретизация насыщенности : 4:2:0
Битовая глубина : 8 bits
Тип развёртки : Progressive
Бит/(Пиксели*Кадры) : 0.212
Размер потока : 2.67 GiB (81%)
Библиотека кодирования : x264 core 155 r2901M 7d0ff22
Настройки программы : cabac=1 / ref=9 / deblock=1:-3:-3 / analyse=0x3:0x133 / me=umh / subme=11 / psy=1 / psy_rd=1.00:0.00 / mixed_ref=1 / me_range=32 / chroma_me=1 / trellis=2 / 8x8dct=1 / cqm=0 / deadzone=21,11 / fast_pskip=0 / chroma_qp_offset=-2 / threads=5 / lookahead_threads=1 / sliced_threads=0 / nr=0 / decimate=0 / interlaced=0 / bluray_compat=0 / constrained_intra=0 / bframes=10 / b_pyramid=2 / b_adapt=2 / b_bias=0 / direct=3 / weightb=1 / open_gop=0 / weightp=2 / keyint=240 / keyint_min=24 / scenecut=40 / intra_refresh=0 / rc_lookahead=120 / rc=2pass / mbtree=0 / bitrate=4500 / ratetol=1.0 / qcomp=0.70 / qpmin=0 / qpmax=69 / qpstep=4 / cplxblur=20.0 / qblur=0.5 / vbv_maxrate=62500 / vbv_bufsize=78125 / nal_hrd=none / filler=0 / ip_ratio=1.40 / pb_ratio=1.30 / aq=3:0.80
Язык : English
Default : Yes
Forced : No

Audio #1
Идентификатор : 2
Формат : AC-3
Формат/Информация : Audio Coding 3
Идентификатор кодека : A_AC3
Продолжительность : 1 h 24 min
Вид битрейта : Constant
Битрейт : 384 kb/s
Каналы : 6 channels
Расположение каналов : Front: L C R, Side: L R, LFE
Частота : 48.0 kHz
Частота кадров : 31.250 FPS (1536 SPF)
Битовая глубина : 16 bits
Метод сжатия : Lossy
Размер потока : 233 MiB (7%)
Язык : Russian
Default : Yes
Forced : No

Audio #2
Идентификатор : 3
Формат : AC-3
Формат/Информация : Audio Coding 3
Идентификатор кодека : A_AC3
Продолжительность : 1 h 24 min
Вид битрейта : Constant
Битрейт : 640 kb/s
Каналы : 6 channels
Расположение каналов : Front: L C R, Side: L R, LFE
Частота : 48.0 kHz
Частота кадров : 31.250 FPS (1536 SPF)
Битовая глубина : 16 bits
Метод сжатия : Lossy
Размер потока : 388 MiB (12%)
Язык : English
Default : No
Forced : No

Text
Идентификатор : 4
Формат : UTF-8
Идентификатор кодека : S_TEXT/UTF8
Идентификатор кодека/Информация : UTF-8 Plain Text
Продолжительность : 1 h 20 min
Битрейт : 71 b/s
ElementCount : 1540
Размер потока : 42.6 KiB (0%)
Язык : English
Default : No
Forced : No

Menu
00:00:00.000 : :Chapter 01
00:07:17.979 : :Chapter 02
00:13:21.300 : :Chapter 03
00:20:31.313 : :Chapter 04
00:28:22.200 : :Chapter 05
00:34:34.989 : :Chapter 06
00:42:38.264 : :Chapter 07
00:54:22.550 : :Chapter 08
01:03:58.876 : :Chapter 09
01:16:08.564 : :Chapter 10




_________________
Проголосуй за трекер Открытый торрент трекер - RUS-MEDIA.ORG

Проголосуй Открытый торрент трекер - RUS-MEDIA.ORG


Вернуться к началу
 Профиль Отправить личное сообщение  
 
   Похожие торренты   Автор   Торрент   Размер 
В этой теме нет новых непрочитанных сообщений. Пчёлка Майя и Кубок мёда / Maya the Bee: The Honey Games [Мультфильм, комедия, приключения, 2018] BDRip-AVC, Dub [iTunes]

salma3

0 | 0

1.83 ГБ

В этой теме нет новых непрочитанных сообщений. Пчёлка Майя и Кубок мёда / Maya the Bee: The Honey Games [Мультфильм, комедия, приключения, 2018] BDRip, Dub [iTunes]

salma3

0 | 0

1.45 ГБ

В этой теме нет новых непрочитанных сообщений. Пчёлка Майя и Кубок мёда / Maya the Bee: The Honey Games [Мультфильм, комедия, приключения, 2018] BDRip 1080p, Dub [iTunes]

salma3

0 | 0

5.94 ГБ

В этой теме нет новых непрочитанных сообщений. Вкус меда / A Taste of Honey [драма, 1961] BDRemux 1080р, Avo+Sub

salma3

20 | 19

25.55 ГБ

В этой теме нет новых непрочитанных сообщений. Аисты / Storks (мультфильм, фэнтези, комедия, семейный, приключения, 2016) BDRip 720p от Scarabey | iTunes

marya111

605 | 86

3.06 ГБ

В этой теме нет новых непрочитанных сообщений. Волки и овцы: бе-е-е-зумное превращение [Мультфильм, семейный, комедия, приключения, 2016] BDRip 720p [iTunes]

salma3

579 | 103

2.84 ГБ

В этой теме нет новых непрочитанных сообщений. В поисках Дори / Finding Dory (Мультфильм, комедия, приключения, семейный, 2016) BDRip 720p | iTunes

marya111

492 | 23

2.74 ГБ


Начать новую тему Ответить на тему  [ 1 сообщение ] 




Для Мосгорсуда, Роскомнадзора и рекламодателей:: mosgorsud-torrent[собачка]yandex.ru
cron