Торрент файл
скачать торрент магнет ссылка Добавлен: 03 авг 2018, 11:18
Размер: 20.63 ГБ
Сидеров: 0
Личеров: 0
Статус: (salma3)
Автор

СообщениеДобавлено: 03 авг 2018, 11:18 

В сети
Супермодератор
Аватара пользователя
Дата регистрации:
15 фев 2012, 16:44
Возраст: 29
Спасибо: 7377 / 2147
Сообщения: 75986
Год выпуска: 2018
Жанр: Мультфильм, фэнтези, мелодрама
Режиссер: Джон Стивенсон

В ролях: Эмили Блант, Джонни Депп, Джеймс МакЭвой, Мэри Джей Блайдж, Майкл Кейн, Мэгги Смит, Чиветел Эджиофор, Стивен Мерчант

О фильме:
Гномео и Джульетту ждет новое захватывающее приключение - теперь в огромном Лондоне. Когда герои с семьями и друзьями переезжают в город, их главная забота - подготовить свой новый сад к весне. Но вскоре они узнают тревожную новость: по всему Лондону таинственным образом исчезают их собратья-гномы! И вот однажды Гномео и Джульетта, вернувшись домой, обнаруживают, что и вся их родня исчезла. В такой ситуации на выручку может прийти только... Шерлок Гномс. Известный детектив становится на защиту обитателей лондонских садов и не без помощи своего верного спутника Ватсона берется раскрыть запутанное дело.



Страна: Великобритания, США
Продолжительность: 01:26:18
Перевод: Дублированный | iTunes

Файл
Качество: BDRemux 1080p
Видео: MPEG-4 AVC, 1920x1080, 28.7 Mbit/s, 23.976 fps
Аудио #01: 48 kHz, AC3, 5.1, 384 Kbps | iTunes | RUS
Аудио #02: 48 kHz, DTS-HD MA, 7.1, 5095 Kbps | Оригинал | ENG
Субтитры: Русские (Forced, full), английские

General
Unique ID : 196486548833916056140421104065962301095 (0x93D1EECC6E1511A4BD866C92F2D7D6A7)
Complete name : D:Video111Sherlock.Gnomes.2018.BDREMUX.1080p.ExKinoRay.mkv
Format : Matroska
Format version : Version 4 / Version 2
File size : 20.6 GiB
Duration : 1 h 26 min
Overall bit rate mode : Variable
Overall bit rate : 34.2 Mb/s
Movie name : Sherlock Gnomes 2018 from ExKinoRay
Encoded date : UTC 2018-07-31 20:38:53
Writing application : mkvmerge v23.0.0 ('The Bride Said No') 64-bit
Writing library : libebml v1.3.6 + libmatroska v1.4.9

Video
ID : 1
Format : AVC
Format/Info : Advanced Video Codec
Format profile : High@L4.1
Format settings : CABAC / 4 Ref Frames
Format settings, CABAC : Yes
Format settings, ReFrames : 4 frames
Codec ID : V_MPEG4/ISO/AVC
Duration : 1 h 26 min
Bit rate mode : Variable
Bit rate : 28.7 Mb/s
Maximum bit rate : 32.6 Mb/s
Width : 1 920 pixels
Height : 1 080 pixels
Display aspect ratio : 16:9
Frame rate mode : Constant
Frame rate : 23.976 (24000/1001) FPS
Color space : YUV
Chroma subsampling : 4:2:0
Bit depth : 8 bits
Scan type : Progressive
Bits/(Pixel*Frame) : 0.578
Stream size : 17.3 GiB (84%)
Language : English
Default : Yes
Forced : No

Audio #1
ID : 2
Format : AC-3
Format/Info : Audio Coding 3
Codec ID : A_AC3
Duration : 1 h 26 min
Bit rate mode : Constant
Bit rate : 384 kb/s
Channel(s) : 6 channels
Channel positions : Front: L C R, Side: L R, LFE
Sampling rate : 48.0 kHz
Frame rate : 31.250 FPS (1536 SPF)
Bit depth : 16 bits
Compression mode : Lossy
Stream size : 237 MiB (1%)
Title : iTunes
Language : Russian
Service kind : Complete Main
Default : Yes
Forced : Yes

Audio #2
ID : 3
Format : DTS
Format/Info : Digital Theater Systems
Format profile : MA / Core
Codec ID : A_DTS
Duration : 1 h 26 min
Bit rate mode : Variable / Constant
Bit rate : 5 095 kb/s / 1 509 kb/s
Channel(s) : 8 channels / 6 channels
Channel positions : Front: L C R, Side: L R, Back: L R, LFE / Front: L C R, Side: L R, LFE
Sampling rate : 48.0 kHz
Frame rate : 93.750 FPS (512 SPF)
Bit depth : 24 bits
Compression mode : Lossless / Lossy
Stream size : 3.07 GiB (15%)
Title : Original
Language : English
Default : No
Forced : No

Text #1
ID : 4
Format : UTF-8
Codec ID : S_TEXT/UTF8
Codec ID/Info : UTF-8 Plain Text
Duration : 1 h 13 min
Bit rate : 0 b/s
Count of elements : 10
Stream size : 224 Bytes (0%)
Title : Forced
Language : Russian
Default : Yes
Forced : Yes

Text #2
ID : 5
Format : UTF-8
Codec ID : S_TEXT/UTF8
Codec ID/Info : UTF-8 Plain Text
Duration : 1 h 25 min
Bit rate : 94 b/s
Count of elements : 1129
Stream size : 58.8 KiB (0%)
Title : Full
Language : Russian
Default : No
Forced : No

Text #3
ID : 6
Format : UTF-8
Codec ID : S_TEXT/UTF8
Codec ID/Info : UTF-8 Plain Text
Duration : 1 h 24 min
Bit rate : 66 b/s
Count of elements : 1182
Stream size : 41.4 KiB (0%)
Title : Full
Language : English
Default : No
Forced : No

Menu
00:00:00.000 : en:00:00:00.000
00:05:36.127 : en:00:05:36.127
00:10:50.650 : en:00:10:50.650
00:16:40.166 : en:00:16:40.166
00:24:05.944 : en:00:24:05.944
00:29:44.074 : en:00:29:44.074
00:35:39.512 : en:00:35:39.512
00:40:52.909 : en:00:40:52.909
00:45:41.530 : en:00:45:41.530
00:52:31.982 : en:00:52:31.982
00:58:29.756 : en:00:58:29.756
01:04:58.520 : en:01:04:58.520
01:10:40.069 : en:01:10:40.069
01:16:03.058 : en:01:16:03.058
01:17:55.212 : en:01:17:55.212


Релиз от: Автор релиза:


_________________
Проголосуй за трекер Открытый торрент трекер - RUS-MEDIA.ORG

Проголосуй Открытый торрент трекер - RUS-MEDIA.ORG


Вернуться к началу
 Профиль Отправить личное сообщение  
 
   Похожие торренты   Автор   Торрент   Размер 
В этой теме нет новых непрочитанных сообщений. Шерлок Гномс / Sherlock Gnomes [Мультфильм, фэнтези, мелодрама, 2017] BDRemux 1080p, Dub [iTunes]

salma3

0 | 0

20.63 ГБ

В этой теме нет новых непрочитанных сообщений. Шерлок Гномс / Sherlock Gnomes [Мультфильм, фэнтези, мелодрама, 2017] BDRip 720p, Dub [iTunes]

salma3

0 | 0

3.65 ГБ

В этой теме нет новых непрочитанных сообщений. Шерлок Гномс / Sherlock Gnomes [Мультфильм, фэнтези, мелодрама, 2018] BDRip-AVC, Dub [iTunes]

salma3

0 | 0

1.5 ГБ

В этой теме нет новых непрочитанных сообщений. Шерлок Гномс / Sherlock Gnomes [Мультфильм, фэнтези, мелодрама, 2018] BDRip, Dub [iTunes]

salma3

0 | 0

1.42 ГБ

В этой теме нет новых непрочитанных сообщений. Шерлок / Sherlock [Cезон 4 , Серия 3 из 3] [2017, Детектив] WEB-DL 1080p, Dub

Dracon

41 | 54

3.28 ГБ

В этой теме нет новых непрочитанных сообщений. Шерлок / Sherlock [04x01 из 03] (триллер, драма, криминал, детектив, 2017) HDTVRip 1080p от qqss44 | Первый канал | Локализованная версия

marya111

1662 | 223

5.18 ГБ

В этой теме нет новых непрочитанных сообщений. Шерлок / Sherlock [04x01-02 из 03] (триллер, драма, криминал, детектив, 2017) HDTVRip 1080p от qqss44 | Первый канал | Локализованная версия

marya111

411 | 731

10.37 ГБ


Начать новую тему Ответить на тему  [ 1 сообщение ] 




Для Мосгорсуда, Роскомнадзора и рекламодателей:: mosgorsud-torrent[собачка]yandex.ru
cron