Торрент файл
скачать торрент магнет ссылка Добавлен: 01 авг 2018, 02:45
Размер: 1.5 ГБ
Сидеров: 0
Личеров: 0
Статус: (salma3)
Автор

СообщениеДобавлено: 01 авг 2018, 02:45 

Не в сети
Супермодератор
Аватара пользователя
Дата регистрации:
15 фев 2012, 16:44
Возраст: 29
Спасибо: 7377 / 2147
Сообщения: 75969
Год выпуска: 2018
Жанр: Мультфильм, фэнтези, мелодрама
Режиссер: Джон Стивенсон

В ролях: Эмили Блант, Джонни Депп, Джеймс МакЭвой, Мэри Джей Блайдж, Майкл Кейн, Мэгги Смит, Чиветел Эджиофор, Стивен Мерчант

О фильме:
Гномео и Джульетту ждет новое захватывающее приключение - теперь в огромном Лондоне. Когда герои с семьями и друзьями переезжают в город, их главная забота - подготовить свой новый сад к весне. Но вскоре они узнают тревожную новость: по всему Лондону таинственным образом исчезают их собратья-гномы! И вот однажды Гномео и Джульетта, вернувшись домой, обнаруживают, что и вся их родня исчезла. В такой ситуации на выручку может прийти только... Шерлок Гномс. Известный детектив становится на защиту обитателей лондонских садов и не без помощи своего верного спутника Ватсона берется раскрыть запутанное дело.



Страна: Великобритания, США
Продолжительность: 01:26:18
Перевод: Дублированный | iTunes

Файл
Качество: BDRip-AVC
Видео: 1024x428 (2.40:1), 23,976 fps, x264 ~1 647 kbps avg, 0.157 bit/pixel
Аудио1: 48 kHz, AC3 Dolby Digital, 3/2 (L,C,R,l,r) + LFE ch, ~384.00 kbps avg | RUS (iTunes)
Аудио2: 48 kHz, AC3 Dolby Digital, 3/2 (L,C,R,l,r) + LFE ch, ~448.00 kbps avg | ENG

Общее
Уникальный идентификатор : 79428507011467840362202971149645405173 (0x3BC15FBF100E6BF879B8762C05AC5BF5)
Полное имя : F:OlLanDGroupSherlock.Gnomes.2018.BDRip(AVC).OlLanDGroup.mkv
Формат : Matroska
Версия формата : Version 4 / Version 2
Размер файла : 1,50 Гбайт
Продолжительность : 1 ч. 26 м.
Общий поток : 2482 Кбит/сек
Название фильма : Sherlock.Gnomes.2018 #TorpedoUK#
Дата кодирования : UTC 2018-07-31 20:09:21
Программа кодирования : mkvmerge v25.0.0 ('Prog Noir') 64-bit
Библиотека кодирования : libebml v1.3.6 + libmatroska v1.4.9
Обложка : Yes
Attachments : small_cover.jpg / small_cover_land.jpg / cover.jpg / cover_land.jpg

Видео
Идентификатор : 1
Формат : AVC
Формат/Информация : Advanced Video Codec
Профиль формата : High@L4.1
Параметр CABAC формата : Да
Параметр ReFrames формата : 10 кадров
Идентификатор кодека : V_MPEG4/ISO/AVC
Продолжительность : 1 ч. 26 м.
Битрейт : 1647 Кбит/сек
Ширина : 1024 пикселя
Высота : 428 пикселей
Соотношение сторон : 2,40:1
Режим частоты кадров : Постоянный
Частота кадров : 23,976 (24000/1001) кадра/сек
Цветовое пространство : YUV
Субдискретизация насыщенности : 4:2:0
Битовая глубина : 8 бит
Тип развёртки : Прогрессивная
Бит/(Пиксели*Кадры) : 0.157
Размер потока : 1017 Мбайт (66%)
Библиотека кодирования : x264 core 146 r2538 121396c
Настройки программы : cabac=1 / ref=10 / deblock=1:-3:-3 / analyse=0x3:0x113 / me=umh / subme=11 / psy=1 / psy_rd=1.00:0.03 / mixed_ref=1 / me_range=48 / chroma_me=1 / trellis=2 / 8x8dct=1 / cqm=0 / deadzone=21,11 / fast_pskip=1 / chroma_qp_offset=-3 / threads=6 / lookahead_threads=1 / sliced_threads=0 / nr=0 / decimate=1 / interlaced=0 / bluray_compat=0 / constrained_intra=0 / bframes=10 / b_pyramid=2 / b_adapt=2 / b_bias=0 / direct=3 / weightb=1 / open_gop=0 / weightp=2 / keyint=240 / keyint_min=23 / scenecut=40 / intra_refresh=0 / rc_lookahead=40 / rc=2pass / mbtree=1 / bitrate=1647 / ratetol=1.0 / qcomp=0.60 / qpmin=0 / qpmax=69 / qpstep=4 / cplxblur=20.0 / qblur=0.5 / vbv_maxrate=50000 / vbv_bufsize=62500 / nal_hrd=none / filler=0 / ip_ratio=1.40 / aq=1:1.00
Язык : English
Default : Да
Forced : Нет

Аудио #1
Идентификатор : 2
Формат : AC-3
Формат/Информация : Audio Coding 3
Расширение режима : CM (complete main)
Параметр Endianness формата : Big
Идентификатор кодека : A_AC3
Продолжительность : 1 ч. 26 м.
Вид битрейта : Постоянный
Битрейт : 384 Кбит/сек
Каналы : 6 каналов
Расположение каналов : Front: L C R, Side: L R, LFE
Частота : 48,0 КГц
Частота кадров : 31,250 кадров/сек (1536 spf)
Битовая глубина : 16 бит
Метод сжатия : С потерями
Размер потока : 237 Мбайт (15%)
Заголовок : iTunes
Язык : Russian
Default : Да
Forced : Нет

Аудио #2
Идентификатор : 3
Формат : AC-3
Формат/Информация : Audio Coding 3
Расширение режима : CM (complete main)
Параметр Endianness формата : Big
Идентификатор кодека : A_AC3
Продолжительность : 1 ч. 26 м.
Вид битрейта : Постоянный
Битрейт : 448 Кбит/сек
Каналы : 6 каналов
Расположение каналов : Front: L C R, Side: L R, LFE
Частота : 48,0 КГц
Частота кадров : 31,250 кадров/сек (1536 spf)
Битовая глубина : 16 бит
Метод сжатия : С потерями
Размер потока : 277 Мбайт (18%)
Заголовок : Original
Язык : English
Default : Нет
Forced : Нет

Текст #1
Идентификатор : 4
Формат : UTF-8
Идентификатор кодека : S_TEXT/UTF8
Идентификатор кодека/Информация : UTF-8 Plain Text
Продолжительность : 1 ч. 13 м.
Битрейт : 0 бит/сек
Count of elements : 10
Размер потока : 224 байт (0%)
Заголовок : Forced
Язык : Russian
Default : Да
Forced : Нет

Текст #2
Идентификатор : 5
Формат : UTF-8
Идентификатор кодека : S_TEXT/UTF8
Идентификатор кодека/Информация : UTF-8 Plain Text
Продолжительность : 1 ч. 25 м.
Битрейт : 94 бит/сек
Count of elements : 1129
Размер потока : 58,8 Кбайт (0%)
Заголовок : Full
Язык : Russian
Default : Нет
Forced : Нет

Текст #3
Идентификатор : 6
Формат : UTF-8
Идентификатор кодека : S_TEXT/UTF8
Идентификатор кодека/Информация : UTF-8 Plain Text
Продолжительность : 1 ч. 25 м.
Битрейт : 68 бит/сек
Count of elements : 1348
Размер потока : 42,6 Кбайт (0%)
Заголовок : Full
Язык : English
Default : Нет
Forced : Нет

Текст #4
Идентификатор : 7
Формат : UTF-8
Идентификатор кодека : S_TEXT/UTF8
Идентификатор кодека/Информация : UTF-8 Plain Text
Продолжительность : 1 ч. 25 м.
Битрейт : 77 бит/сек
Count of elements : 1568
Размер потока : 48,3 Кбайт (0%)
Заголовок : SDH
Язык : English
Default : Нет
Forced : Нет

Меню
00:00:00.000 : en:Chapter 01
00:05:36.127 : en:Chapter 02
00:10:50.691 : en:Chapter 03
00:16:40.624 : en:Chapter 04
00:24:05.944 : en:Chapter 05
00:29:44.073 : en:Chapter 06
00:35:39.512 : en:Chapter 07
00:40:52.908 : en:Chapter 08
00:45:41.530 : en:Chapter 09
00:52:31.982 : en:Chapter 10
00:58:29.797 : en:Chapter 11
01:04:58.519 : en:Chapter 12
01:10:40.069 : en:Chapter 13
01:16:02.933 : en:Chapter 14
01:17:55.170 : en:Chapter 15





Релиз от: Rip by:


_________________
Проголосуй за трекер Открытый торрент трекер - RUS-MEDIA.ORG

Проголосуй Открытый торрент трекер - RUS-MEDIA.ORG


Вернуться к началу
 Профиль Отправить личное сообщение  
 
   Похожие торренты   Автор   Торрент   Размер 
В этой теме нет новых непрочитанных сообщений. Шерлок Гномс / Sherlock Gnomes [Мультфильм, фэнтези, мелодрама, 2018] BDRip, Dub [iTunes]

salma3

0 | 0

1.42 ГБ

В этой теме нет новых непрочитанных сообщений. Шерлок Гномс / Sherlock Gnomes [Мультфильм, фэнтези, мелодрама, 2017] BDRip 720p, Dub [iTunes]

salma3

0 | 0

3.65 ГБ

В этой теме нет новых непрочитанных сообщений. Шерлок Гномс / Sherlock Gnomes [Мультфильм, фэнтези, мелодрама, 2017] BDRemux 1080p, Dub [iTunes]

salma3

0 | 0

20.63 ГБ

В этой теме нет новых непрочитанных сообщений. Шерлок Гномс / Sherlock Gnomes [Мультфильм, фэнтези, мелодрама, 2017] BDRemux 1080p, Dub [iTunes]

salma3

0 | 0

20.63 ГБ

В этой теме нет новых непрочитанных сообщений. Шерлок / Sherlock [S01-04] [Триллер, драма, криминал, 2010-2017] BDRip, Dub [Первый канал]

salma3

0 | 73

20.83 ГБ

В этой теме нет новых непрочитанных сообщений. Шерлок / Sherlock [S01-04] [Триллер, драма, криминал, детекти, 2010-2017] BDRip, WEB-DLRip, Dub [Первый канал]

salma3

307 | 481

19.12 ГБ

В этой теме нет новых непрочитанных сообщений. Шерлок / Sherlock [Cезон 4 , Серия 3 из 3] [2017, Детектив] WEB-DL 1080p, Dub

Dracon

41 | 54

3.28 ГБ


Начать новую тему Ответить на тему  [ 1 сообщение ] 




Для Мосгорсуда, Роскомнадзора и рекламодателей:: mosgorsud-torrent[собачка]yandex.ru
cron