Торрент файл
скачать торрент магнет ссылка Добавлен: 10 июл 2018, 11:06
Размер: 3.4 ГБ
Сидеров: 0
Личеров: 0
Статус: (salma3)
Автор

СообщениеДобавлено: 10 июл 2018, 11:06 

Не в сети
Супермодератор
Аватара пользователя
Дата регистрации:
15 фев 2012, 16:44
Возраст: 29
Спасибо: 7379 / 2147
Сообщения: 76077
Год выхода: 1968
Жанр: Мюзикл, фэнтези, комедия, семейный
Режиссер: Кен Хьюз / Ken Hughes

В ролях: Дик Ван Дайк, Сэлли Энн Хоус, Лайонел Джеффрис, Герт Фрёбе, Анна Куэйл, Бенни Хилл, Джеймс Робертсон Джастис, Роберт Хелпманн, Хезер Рипли, Адриан Холл

О фильме:
Дик Ван Дайк исполняет роль чудаковатого изобретателя Карактакуса Поттса, создавшего экспериментальный автомобиль и назвавший его «Пиф — паф Ой — ой-ой». Этот автомобиль не только ездит, но еще и летает, и плавает, смотря что ему закажешь.

И едет он туда, куда захотят изобретатель, двое его детей и симпатичная подруга — в сказочный мир старинных замков и приключений.

Именно там наша компания и встречает то и дело множество неповторимых персонажей, среди которых барон Бомбурст из Вульгарии, его хохотушка — жена, добродушный городской кукольник и ужасный похититель детей.



Выпущено: Великобритания / Dramatic Features, Warfield
Продолжительность: 02:25:30
Перевод: Профессиональный (полное дублирование) + Профессиональный (многоголосый, закадровый)
Субтитры: Русские (Full, Forced), английские
Релиз от: Охрана (NNMCLUB)

Файл
Качество: BDRip-AVC
Видео: AVC/H.264, 1024x464, ~2575 Kbps
Аудио 1: Русский, AC3, 6 ch, 384 Kbps, 48.0 kHz (Dub)
Аудио 2: Русский, AC3, 2 ch, 192 Kbps, 48.0 kHz (МVO)
Аудио 3: Английский, AC3, 2 ch, 192 Kbps, 48.0 kHz (Оригинал)

Общее
Уникальный идентификатор : 176170694894262812822818492389410645672 (0x84893DDD9030DBCBBBC00B89EEC6A6A8)
Полное имя : B:DownloadsПиф-паф ой-ой-ой. 1968. NNMCLUB.mkv
Формат : Matroska
Версия формата : Version 4 / Version 2
Размер файла : 3,40 Гбайт
Продолжительность : 2 ч. 25 м.
Общий поток : 3346 Кбит/сек
Дата кодирования : UTC 2018-07-04 13:31:14
Программа кодирования : mkvmerge v7.9.0 ('Birds') 64bit
Библиотека кодирования : libebml v1.3.1 + libmatroska v1.4.2

Видео
Идентификатор : 1
Формат : AVC
Формат/Информация : Advanced Video Codec
Профиль формата : High@L4.1
Настройки формата : CABAC / 12 Ref Frames
Параметр CABAC формата : Да
Параметр RefFrames формата : 12 кадров
Идентификатор кодека : V_MPEG4/ISO/AVC
Продолжительность : 2 ч. 25 м.
Битрейт : 2575 Кбит/сек
Ширина : 1024 пикселя
Высота : 464 пикселя
Соотношение сторон : 2,2:1
Режим частоты кадров : Постоянный
Частота кадров : 23,976 (24000/1001) кадра/сек
Цветовое пространство : YUV
Субдискретизация насыщенности : 4:2:0
Битовая глубина : 8 бит
Тип развёртки : Прогрессивная
Бит/(Пиксели*Кадры) : 0.226
Размер потока : 2,62 Гбайт (77%)
Заголовок : Chitty Chitty Bang Bang
Библиотека кодирования : x264 core 146 r2538 121396c
Настройки программы : cabac=1 / ref=12 / deblock=1:-1:-1 / analyse=0x3:0x113 / me=umh / subme=10 / psy=1 / psy_rd=1.00:0.10 / mixed_ref=1 / me_range=32 / chroma_me=1 / trellis=2 / 8x8dct=1 / cqm=0 / deadzone=21,11 / fast_pskip=0 / chroma_qp_offset=-3 / threads=6 / lookahead_threads=1 / sliced_threads=0 / nr=0 / decimate=0 / interlaced=0 / bluray_compat=0 / constrained_intra=0 / bframes=7 / b_pyramid=2 / b_adapt=2 / b_bias=0 / direct=3 / weightb=1 / open_gop=0 / weightp=2 / keyint=250 / keyint_min=25 / scenecut=40 / intra_refresh=0 / rc_lookahead=60 / rc=2pass / mbtree=1 / bitrate=2575 / ratetol=1.0 / qcomp=0.60 / qpmin=0 / qpmax=69 / qpstep=4 / cplxblur=20.0 / qblur=0.5 / vbv_maxrate=14000 / vbv_bufsize=14000 / nal_hrd=none / filler=0 / ip_ratio=1.40 / aq=1:1.00
Язык : English
Default : Да
Forced : Нет

Аудио #1
Идентификатор : 2
Формат : AC-3
Формат/Информация : Audio Coding 3
Идентификатор кодека : A_AC3
Продолжительность : 2 ч. 25 м.
Вид битрейта : Постоянный
Битрейт : 384 Кбит/сек
Каналы : 6 каналов
Расположение каналов : Front: L C R, Side: L R, LFE
Частота : 48,0 КГц
Частота кадров : 31,250 кадров/сек (1536 SPF)
Битовая глубина : 16 бит
Метод сжатия : С потерями
Размер потока : 400 Мбайт (11%)
Заголовок : Дубляж
Язык : Russian
ServiceKind : Complete Main
Default : Да
Forced : Нет

Аудио #2
Идентификатор : 3
Формат : AC-3
Формат/Информация : Audio Coding 3
Идентификатор кодека : A_AC3
Продолжительность : 2 ч. 25 м.
Вид битрейта : Постоянный
Битрейт : 192 Кбит/сек
Каналы : 2 канала
Расположение каналов : Front: L R
Частота : 48,0 КГц
Частота кадров : 31,250 кадров/сек (1536 SPF)
Битовая глубина : 16 бит
Метод сжатия : С потерями
Размер потока : 200 Мбайт (6%)
Заголовок : Многоголосый закадровый
Язык : Russian
ServiceKind : Complete Main
Default : Нет
Forced : Нет

Аудио #3
Идентификатор : 4
Формат : AC-3
Формат/Информация : Audio Coding 3
Идентификатор кодека : A_AC3
Продолжительность : 2 ч. 25 м.
Вид битрейта : Постоянный
Битрейт : 192 Кбит/сек
Каналы : 2 канала
Расположение каналов : Front: L R
Частота : 48,0 КГц
Частота кадров : 31,250 кадров/сек (1536 SPF)
Битовая глубина : 16 бит
Метод сжатия : С потерями
Размер потока : 200 Мбайт (6%)
Заголовок : Оригинал
Язык : English
ServiceKind : Complete Main
Default : Нет
Forced : Нет

Текст #1
Идентификатор : 5
Формат : UTF-8
Идентификатор кодека : S_TEXT/UTF8
Идентификатор кодека/Информация : UTF-8 Plain Text
Продолжительность : 2 ч. 8 м.
Битрейт : 22 бит/сек
ElementCount : 473
Размер потока : 21,3 Кбайт (0%)
Заголовок : Russian (forced)
Язык : Russian
Default : Да
Forced : Да

Текст #2
Идентификатор : 6
Формат : UTF-8
Идентификатор кодека : S_TEXT/UTF8
Идентификатор кодека/Информация : UTF-8 Plain Text
Продолжительность : 2 ч. 24 м.
Битрейт : 75 бит/сек
ElementCount : 1744
Размер потока : 80,0 Кбайт (0%)
Заголовок : Russian
Язык : Russian
Default : Нет
Forced : Нет

Текст #3
Идентификатор : 7
Формат : UTF-8
Идентификатор кодека : S_TEXT/UTF8
Идентификатор кодека/Информация : UTF-8 Plain Text
Продолжительность : 1 ч. 51 м.
Битрейт : 15 бит/сек
ElementCount : 411
Размер потока : 12,4 Кбайт (0%)
Заголовок : English (Sing-a-long)
Язык : English
Default : Нет
Forced : Нет

Текст #4
Идентификатор : 8
Формат : UTF-8
Идентификатор кодека : S_TEXT/UTF8
Идентификатор кодека/Информация : UTF-8 Plain Text
Продолжительность : 2 ч. 25 м.
Битрейт : 59 бит/сек
ElementCount : 2207
Размер потока : 63,6 Кбайт (0%)
Заголовок : English
Язык : English
Default : Нет
Forced : Нет


_________________
Проголосуй за трекер Открытый торрент трекер - RUS-MEDIA.ORG

Проголосуй Открытый торрент трекер - RUS-MEDIA.ORG


Вернуться к началу
 Профиль Отправить личное сообщение  
 
   Похожие торренты   Автор   Торрент   Размер 
В этой теме нет новых непрочитанных сообщений. Пиф-паф ой-ой-ой / Chitty Chitty Bang Bang [мюзикл, фэнтези, приключения, 1968] HDRip, Dub

salma3

0 | 0

2.18 ГБ

В этой теме нет новых непрочитанных сообщений. [Bang! Casting / Bang! Originals / Bang.com] Jenna Reid Earns Bang Whore With Deep Throat And Pussy Skills (04.07.2018) [All Sex, Blowjob, 1080p]

salma3

0 | 0

3.01 ГБ

В этой теме нет новых непрочитанных сообщений. Пиф-паф / Bang Bang [боевик, мелодрама, комедия, 2014] BDRip 720p, Mvo

salma3

46 | 29

6.84 ГБ

В этой теме нет новых непрочитанных сообщений. Верняк / Bang Boom Bang - Ein todsicheres Ding [Боевик, комедия, 1999] BDRip 1080p, Mvo

salma3

94 | 25

8.89 ГБ

В этой теме нет новых непрочитанных сообщений. [Bang! Casting / Bang.com] Nikki Next Auditions For Bang! [06-06-2018 г., All Sex, Facial Cumshot, Deep Throat, 540p]

salma3

0 | 0

889.76 МБ

В этой теме нет новых непрочитанных сообщений. [Bang! Casting / Bang.com] Nikki Next Auditions For Bang! [06-06-2018 г., All Sex, Facial Cumshot, Deep Throat, 486p]

salma3

0 | 1

498.3 МБ

В этой теме нет новых непрочитанных сообщений. [Bang! Casting / Bang.com] Zoey Monroe Auditions For Bang! And Gets Double Penetrated. (28.08.2017) [Anal, DP, All Sex, Blowjobs, 360p]

salma3

8 | 5

221.04 МБ


Начать новую тему Ответить на тему  [ 1 сообщение ] 




Для Мосгорсуда, Роскомнадзора и рекламодателей:: mosgorsud-torrent[собачка]yandex.ru
cron