Торрент файл
скачать торрент магнет ссылка Добавлен: 05 июн 2018, 11:02
Размер: 1.46 ГБ
Сидеров: 1
Личеров: 5
Статус: (salma3)
Автор

СообщениеДобавлено: 05 июн 2018, 11:02 

Не в сети
Супермодератор
Аватара пользователя
Дата регистрации:
15 фев 2012, 16:44
Возраст: 28
Спасибо: 7224 / 2147
Сообщения: 67851
Год выпуска: 2018
Жанр: мультфильм, приключения
Режиссер: Аудни Аусгейрссон

В ролях:Джэми Орам, Харриет Перринг, Иэн Стюарт Робертсон, Ричард Уиллс-Коттон, Торунн Эрна Клаузен, Томас Арнольд, Кайзер Ахтар, Дебби Чейзен

Описание:
Приключения маленького птенца Рыжика и куропатки-отшельника Гайрона. Судьба сводит их вместе, когда Рыжик, отстав от стаи, не смог улететь на юг. Рыжик уговаривает чудаковатого и вечно брюзжащего Гайрона показать ему дорогу в Райскую долину — тайное место в горах, где птицы могут переждать суровую зиму. Путь туда таит немало опасностей. Постепенно неунывающему Рыжику удаётся растопить сердце старого отшельника. Вместе эта парочка становится друг для друга настоящей семьёй, которой по силам свернуть горы...



Страна:Исландия
Продолжительность: 01:22:34
Перевод:Профессиональный (полное дублирование)[iTunes]

Качество: WEB-DLRip
Видео: 720x304 (2.35:1), 24.000 fps, XviD build 73 ~2 130 kbps avg
Аудио: 48 kHz, AC3 Dolby Digital, 3/2 (L,C,R,l,r) + LFE ch, ~384 kbps



General
Format : AVI
Format/Info : Audio Video Interleave
File size : 1.46 GiB
Duration : 1 h 22 min
Overall bit rate : 2 523 kb/s
Writing application : VirtualDubMod 1.5.10.3 | (build 2550/release)
Writing library : VirtualDubMod build 2550/release

Video
ID : 0
Format : MPEG-4 Visual
Format profile : Advanced Simple@L5
Format settings : BVOP1 / Custom Matrix
Format settings, BVOP : 1
Format settings, QPel : No
Format settings, GMC : No warppoints
Format settings, Matrix : Custom
Codec ID : XVID
Codec ID/Hint : XviD
Duration : 1 h 22 min
Bit rate : 2 130 kb/s
Width : 720 pixels
Height : 304 pixels
Display aspect ratio : 2.35:1
Frame rate : 24.000 FPS
Color space : YUV
Chroma subsampling : 4:2:0
Bit depth : 8 bits
Scan type : Progressive
Compression mode : Lossy
Bits/(Pixel*Frame) : 0.405
Stream size : 1.23 GiB (84%)
Writing library : XviD 73

Audio
ID : 1
Format : AC-3
Format/Info : Audio Coding 3
Codec ID : 2000
Duration : 1 h 22 min
Bit rate mode : Constant
Bit rate : 384 kb/s
Channel(s) : 6 channels
Channel positions : Front: L C R, Side: L R, LFE
Sampling rate : 48.0 kHz
Frame rate : 31.250 FPS (1536 SPF)
Bit depth : 16 bits
Compression mode : Lossy
Stream size : 227 MiB (15%)
Alignment : Split accross interleaves
Interleave, duration : 42 ms (1.00 video frame)
Interleave, preload duratio : 500 ms
Service kind : Complete Main


Релиз от: порошков


_________________
Проголосуй за трекер Открытый торрент трекер - RUS-MEDIA.ORG

Проголосуй Открытый торрент трекер - RUS-MEDIA.ORG


Вернуться к началу
 Профиль Отправить личное сообщение  
 
   Похожие торренты   Автор   Торрент   Размер 
В этой теме нет новых непрочитанных сообщений. Славные пташки / PLOEY. You Never Fly Alone [мультфильм, приключения, 2018] WEB-DL 1080р, Dub [iTunes]

salma3

2 | 81

2.83 ГБ

В этой теме нет новых непрочитанных сообщений. Полярные приключения / Polar Adventure [Мультфильм, комедия, приключения, семейный, 2015] WEB-DLRip, dUB [iTunes]

salma3

217 | 74

1.46 ГБ

В этой теме нет новых непрочитанных сообщений. Полярные приключения / Polar Adventure [Мультфильм, комедия, приключения, семейный, 2015] WEB-DLRip, dUB [iTunes]

salma3

176 | 17

744.81 МБ

В этой теме нет новых непрочитанных сообщений. Тачки 3 / Cars 3 [Мультфильм, комедия, приключения, 2017] WEB-DLRip-AVC, Dub [iTunes]

salma3

2 | 1

2.43 ГБ

В этой теме нет новых непрочитанных сообщений. Тачки 3 / Cars 3 [Мультфильм, комедия, приключения, 2017] WEB-DLRip, Dub [iTunes]

salma3

0 | 0

745.35 МБ

В этой теме нет новых непрочитанных сообщений. Подводная эра / Deep [Мультфильм, комедия, приключения, 2017] WEB-DLRip, Dub [iTunes]

salma3

66 | 4

1.48 ГБ

В этой теме нет новых непрочитанных сообщений. Бременские разбойники [Мультфильм, комедия, приключения, музыка, 2016] WEB-DLRip [iTunes]

salma3

6883 | 1166

1.37 ГБ


Начать новую тему Ответить на тему  [ 1 сообщение ] 




Для Мосгорсуда, Роскомнадзора и рекламодателей:: mosgorsud-torrent[собачка]yandex.ru
cron