Торрент файл
скачать торрент магнет ссылка Добавлен: 02 июн 2018, 10:54
Размер: 1.45 ГБ
Сидеров: 9
Личеров: 6
Статус: (salma3)
Автор

СообщениеДобавлено: 02 июн 2018, 10:54 

Не в сети
Супермодератор
Аватара пользователя
Дата регистрации:
15 фев 2012, 16:44
Возраст: 28
Спасибо: 7223 / 2147
Сообщения: 67778
Год выхода: 2017
Жанр: Мультфильм
Режиссер: Амалия Нэсби Фик, Юрген Лердам, Филип Эйнштейн Липски

Роли озвучивают: Альфред Бьерр Ларсен, Лива Эльвира Магнуссен, Петер Фрёдин, Хенрик Койфоэд, Петер Плаугборг, Сёрен Пильмарк, Якоб Офтебро, Питер Зельдер, Бьярне Хенриксен, Петер Ауде

О фильме:
Эта невероятная сказка берёт своё начало в прекрасном Солнечном городе на берегу моря, где живут Слон Себастьян и его лучший друг Кот Митчо. Однажды друзья находят бутылку с посланием от пропавшего бургомистра, который просит спасти его с Таинственного острова.
Также в бутылке оказывается семечко груши, которое они сажают в землю. Ночью из него вырастает гигантская груша. Друзья решают использовать ее в качестве корабля. Себастьян, Митчо и их приятель — профессор Глюкоза отправляются в невероятное приключение. На встречу с пиратами, морским драконом и опасными призраками. Их ждут испытания, но ничто не может остановить друзей — они полны решимости найти Таинственный остров и вернуть бургомистра домой.



Страна: Дания
Продолжительность: 01:18:29
Перевод: Профессиональный (полное дублирование) | Лицензия BD RUS

Файл
Качество: BDRip-AVC
Видео: 1024x554 (1.85:1), 23,976 fps, x264 ~2 204 kbps avg, 0.162 bit/pixel
Аудио: 48 kHz, AC3 Dolby Digital, 3/2 (L,C,R,l,r) + LFE ch, ~448.00 kbps avg | RUS (Лицензия)

Общее
Уникальный идентификатор : 182572124737458032840789178283341003989 (0x895A1CB96A8E50048D2A7D59B11E3CD5)
Полное имя : E:OlLanDGroupThe.Incredible.Story.of.the.Giant.Pear.2017.BDRip(AVC).OlLanDGroup.mkv
Формат : Matroska
Версия формата : Version 4 / Version 2
Размер файла : 1,45 Гбайт
Продолжительность : 1 ч. 18 м.
Общий поток : 2652 Кбит/сек
Название фильма : The.Incredible.Story.of.the.Giant.Pear.2017 #TorpedoUK#
Дата кодирования : UTC 2018-06-01 20:55:00
Программа кодирования : mkvmerge v8.3.0 ('Over the Horizon') 64bit
Библиотека кодирования : libebml v1.3.1 + libmatroska v1.4.2

Видео
Идентификатор : 1
Формат : AVC
Формат/Информация : Advanced Video Codec
Профиль формата : High@L4.1
Параметр CABAC формата : Да
Параметр ReFrames формата : 10 кадров
Идентификатор кодека : V_MPEG4/ISO/AVC
Продолжительность : 1 ч. 18 м.
Битрейт : 2204 Кбит/сек
Ширина : 1024 пикселя
Высота : 554 пикселя
Соотношение сторон : 1,85:1
Режим частоты кадров : Постоянный
Частота кадров : 24,000 кадра/сек
Цветовое пространство : YUV
Субдискретизация насыщенности : 4:2:0
Битовая глубина : 8 бит
Тип развёртки : Прогрессивная
Бит/(Пиксели*Кадры) : 0.162
Размер потока : 1,20 Гбайт (83%)
Библиотека кодирования : x264 core 146 r2538 121396c
Настройки программы : cabac=1 / ref=10 / deblock=1:-3:-3 / analyse=0x3:0x133 / me=umh / subme=11 / psy=1 / psy_rd=1.00:0.03 / mixed_ref=1 / me_range=48 / chroma_me=1 / trellis=2 / 8x8dct=1 / cqm=0 / deadzone=21,11 / fast_pskip=1 / chroma_qp_offset=-3 / threads=6 / lookahead_threads=1 / sliced_threads=0 / nr=0 / decimate=1 / interlaced=0 / bluray_compat=0 / constrained_intra=0 / bframes=10 / b_pyramid=2 / b_adapt=2 / b_bias=0 / direct=3 / weightb=1 / open_gop=0 / weightp=2 / keyint=240 / keyint_min=23 / scenecut=40 / intra_refresh=0 / rc_lookahead=40 / rc=2pass / mbtree=0 / bitrate=2204 / ratetol=1.0 / qcomp=0.60 / qpmin=0 / qpmax=69 / qpstep=4 / cplxblur=20.0 / qblur=0.5 / vbv_maxrate=50000 / vbv_bufsize=62500 / nal_hrd=none / filler=0 / ip_ratio=1.40 / pb_ratio=1.30 / aq=1:1.00
Язык : English
Default : Да
Forced : Нет

Аудио
Идентификатор : 2
Формат : AC-3
Формат/Информация : Audio Coding 3
Расширение режима : CM (complete main)
Параметр Endianness формата : Big
Идентификатор кодека : A_AC3
Продолжительность : 1 ч. 18 м.
Вид битрейта : Постоянный
Битрейт : 448 Кбит/сек
Каналы : 6 каналов
Расположение каналов : Front: L C R, Side: L R, LFE
Частота : 48,0 КГц
Частота кадров : 31,250 кадров/сек (1536 spf)
Битовая глубина : 16 бит
Метод сжатия : С потерями
Размер потока : 250 Мбайт (17%)
Заголовок : License
Язык : Russian
Default : Да
Forced : Нет

Меню
00:00:00.000 : en:00:00:00.000
00:01:27.958 : en:00:01:27.958
00:08:23.417 : en:00:08:23.417
00:19:22.625 : en:00:19:22.625
00:29:09.833 : en:00:29:09.833
00:39:27.042 : en:00:39:27.042
00:49:25.250 : en:00:49:25.250
00:58:37.125 : en:00:58:37.125
01:05:45.167 : en:01:05:45.167





Релиз от: Rip by:


_________________
Проголосуй за трекер Открытый торрент трекер - RUS-MEDIA.ORG

Проголосуй Открытый торрент трекер - RUS-MEDIA.ORG


Вернуться к началу
 Профиль Отправить личное сообщение  
 
   Похожие торренты   Автор   Торрент   Размер 
В этой теме нет новых непрочитанных сообщений. Невероятная история о гигантской груше / Den utrolige historie om den kæmpestore pære [Мультфильм, 2017] BDRip, Dub [Лицензия]

salma3

102 | 62

1.37 ГБ

В этой теме нет новых непрочитанных сообщений. Невероятная история о гигантской груше / Den utrolige historie om den kæmpestore pære [Мультфильм, 2017] Blu-ray 1080p, Dub [Лицензия]

salma3

21 | 23

12.12 ГБ

В этой теме нет новых непрочитанных сообщений. Невероятная тайна Лулу / Loulou, l'incroyable secret (Эрик Омон) [мультфильм, семейный, 2013] BDRip 1080p, Dub [iTunes]

Dracon

273 | 60

4.59 ГБ

В этой теме нет новых непрочитанных сообщений. Невероятная жизнь Уолтера Митти / The Secret Life of Walter Mitty [приключения, мелодрама, драма, 2013] BDRip 1080p, Dub [лицензия]

salma3

0 | 0

7.76 ГБ

В этой теме нет новых непрочитанных сообщений. Матильда [Драма, история, триллер, 2017] BDRip [Лицензия]

salma3

83 | 13

1.46 ГБ

В этой теме нет новых непрочитанных сообщений. Дюнкерк / Dunkirk [Военный, драма, история, 2017] BDRip, Dub [IMAX] [Лицензия]

salma3

92 | 14

745.88 МБ

В этой теме нет новых непрочитанных сообщений. Дюнкерк / Dunkirk [Военный, драма, история, 2017] BDRip, Dub [IMAX] [Лицензия]

salma3

15102 | 2675

1.46 ГБ


Начать новую тему Ответить на тему  [ 1 сообщение ] 




Для Мосгорсуда, Роскомнадзора и рекламодателей:: mosgorsud-torrent[собачка]yandex.ru
cron