Торрент файл
скачать торрент магнет ссылка Добавлен: 13 апр 2018, 11:21
Размер: 3.67 ГБ
Сидеров: 0
Личеров: 0
Статус: (salma3)
Автор

СообщениеДобавлено: 13 апр 2018, 11:21 

В сети
Супермодератор
Аватара пользователя
Дата регистрации:
15 фев 2012, 16:44
Возраст: 28
Спасибо: 7223 / 2147
Сообщения: 67697
Год выхода: 2018
Жанр: мультфильм, фэнтези, боевик
Режиссер: Сэм Лью

В ролях: Дженнифер Карпентер, Тара Стронг, Брюс Гринвуд, Скотт Гордон-Паттерсон, Кари Уорер, Грей ДеЛайл, Джон Ди Маджио, Энтони Хэд, Линкольн Мелчер, Юрий Ловенталь

О фильме:
В альтернативной истории в 1889 году Брюс Уэйн возвращается в Готэм из своего путешествия по Европе. Город викторианской эпохи всё так же привлекает преступников. Череда загадочных и зверских убийств заставляет жителей подозревать, что убийца — Бэтмен. Тёмному Рыцарю бросает вызов самый известный маньяк XIX века — Джек-потрошитель.



Страна: США
Продолжительность: 01:17:04
Перевод: Профессиональный многоголосый закадровый (студия Jaskier)

Файл
Формат: MKV
Качество: BDRip 1080p
Видео: 5544 kb/s, 1920x1080, 23.976 fps
Аудио: Russian / English: AC3, 640 kb/s (6 ch)
Субтитры: английские (full)



Общее
Уникальный идентификатор : 234138798985212243545792163827432274310 (0xB0257E0EA32A1402B12A7370FBC7B986)
Полное имя : D:ЯскъерBatman.Gotham.by.Gaslight.2018.BDRip.1080p.JASKiER.mkv
Формат : Matroska
Версия формата : Version 2
Размер файла : 3,67 Гбайт
Продолжительность : 1 ч. 17 м.
Общий поток : 6826 Кбит/сек
Название фильма : MT
Дата кодирования : UTC 2018-04-13 02:36:57
Программа кодирования : mkvmerge v7.8.0 ('River Man') 32bit built on Apr 3 2015 12:11:22
Библиотека кодирования : libebml v1.3.1 + libmatroska v1.4.2

Видео
Идентификатор : 1
Формат : AVC
Формат/Информация : Advanced Video Codec
Профиль формата : High@L4.1
Настройки формата : CABAC / 4 Ref Frames
Параметр CABAC формата : Да
Параметр RefFrames формата : 4 кадра
Идентификатор кодека : V_MPEG4/ISO/AVC
Продолжительность : 1 ч. 17 м.
Битрейт : 5544 Кбит/сек
Ширина : 1920 пикселей
Высота : 1080 пикселей
Соотношение сторон : 16:9
Режим частоты кадров : Постоянный
Частота кадров : 23,976 (24000/1001) кадра/сек
Цветовое пространство : YUV
Субдискретизация насыщенности : 4:2:0
Битовая глубина : 8 бит
Тип развёртки : Прогрессивная
Бит/(Пиксели*Кадры) : 0.112
Размер потока : 2,91 Гбайт (79%)
Библиотека кодирования : x264 core 148 r2597 e86f3a1
Настройки программы : cabac=1 / ref=4 / deblock=1:0:0 / analyse=0x3:0x113 / me=umh / subme=10 / psy=1 / psy_rd=1.05:0.10 / mixed_ref=1 / me_range=48 / chroma_me=1 / trellis=2 / 8x8dct=1 / cqm=0 / deadzone=21,11 / fast_pskip=0 / chroma_qp_offset=-2 / threads=12 / lookahead_threads=1 / sliced_threads=0 / nr=0 / decimate=1 / interlaced=0 / bluray_compat=0 / constrained_intra=0 / bframes=6 / b_pyramid=2 / b_adapt=2 / b_bias=0 / direct=3 / weightb=1 / open_gop=0 / weightp=2 / keyint=250 / keyint_min=23 / scenecut=40 / intra_refresh=0 / rc=2pass / mbtree=0 / bitrate=5544 / ratetol=2.0 / qcomp=0.70 / qpmin=0 / qpmax=69 / qpstep=4 / cplxblur=20.0 / qblur=0.5 / ip_ratio=1.40 / pb_ratio=1.30 / aq=2:1.00
Язык : English
Default : Да
Forced : Нет

Аудио #1
Идентификатор : 2
Формат : AC-3
Формат/Информация : Audio Coding 3
Идентификатор кодека : A_AC3
Продолжительность : 1 ч. 17 м.
Вид битрейта : Постоянный
Битрейт : 640 Кбит/сек
Каналы : 6 каналов
Расположение каналов : Front: L C R, Side: L R, LFE
Частота : 48,0 КГц
Частота кадров : 31,250 кадров/сек (1536 SPF)
Битовая глубина : 16 бит
Метод сжатия : С потерями
Размер потока : 353 Мбайт (9%)
Заголовок : Jaskier
Язык : Russian
Default : Да
Forced : Нет

Аудио #2
Идентификатор : 3
Формат : AC-3
Формат/Информация : Audio Coding 3
Идентификатор кодека : A_AC3
Продолжительность : 1 ч. 17 м.
Вид битрейта : Постоянный
Битрейт : 640 Кбит/сек
Каналы : 6 каналов
Расположение каналов : Front: L C R, Side: L R, LFE
Частота : 48,0 КГц
Частота кадров : 31,250 кадров/сек (1536 SPF)
Битовая глубина : 16 бит
Метод сжатия : С потерями
Размер потока : 353 Мбайт (9%)
Язык : English
Default : Нет
Forced : Нет

Текст
Идентификатор : 4
Формат : UTF-8
Идентификатор кодека : S_TEXT/UTF8
Идентификатор кодека/Информация : UTF-8 Plain Text
Язык : English
Default : Нет
Forced : Нет

Меню
00:00:00.000 : en:Глава 1
00:05:11.500 : en:Глава 2
00:11:23.708 : en:Глава 3
00:18:10.291 : en:Глава 4
00:25:19.624 : en:Глава 5
00:31:08.582 : en:Глава 6
00:36:21.290 : en:Глава 7
00:40:55.790 : en:Глава 8
00:47:29.665 : en:Глава 9
00:54:02.706 : en:Глава 10
01:02:06.747 : en:Глава 11
01:07:49.580 : en:Глава 12
01:13:06.413 : en:Глава 13



_________________
Проголосуй за трекер Открытый торрент трекер - RUS-MEDIA.ORG

Проголосуй Открытый торрент трекер - RUS-MEDIA.ORG


Вернуться к началу
 Профиль Отправить личное сообщение  
 
   Похожие торренты   Автор   Торрент   Размер 
В этой теме нет новых непрочитанных сообщений. Бэтмен: Готэм в газовом свете / Batman: Gotham by Gaslight [мультфильм, фэнтези, боевик, 2018] BDRip 720p, Mvo [Jaskier]

salma3

0 | 1

2.06 ГБ

В этой теме нет новых непрочитанных сообщений. Бэтмен: Готэм в газовом свете / Batman: Gotham by Gaslight [мультфильм, фэнтези, боевик, 2018] HDRip, Mvo [Jaskier]

salma3

0 | 1

1.37 ГБ

В этой теме нет новых непрочитанных сообщений. Бэтмен: Готэм в газовом свете / Batman: Gotham by Gaslight [мультфильм, фэнтези, боевик, 2018] BDRip 1080p, Mvo [D1production]

salma3

2 | 3

5.57 ГБ

В этой теме нет новых непрочитанных сообщений. Бэтмен: Готэм в газовом свете / Batman: Gotham by Gaslight [мультфильм, фэнтези, боевик, 2018] BDRip 720p, Mvo [D1production]

salma3

17 | 2

3.38 ГБ

В этой теме нет новых непрочитанных сообщений. Бэтмен: Готэм в газовом свете / Batman: Gotham by Gaslight [боевик, история, криминал, мультфильмы, 2018] WEBRip 720p, Dvo [RusFilm]

salma3

0 | 0

933.87 МБ

В этой теме нет новых непрочитанных сообщений. Бэтмен / The LEGO Batman Movie [Мультфильм, фэнтези, боевик, 2017] BDRip 720p, Dub [Лицензия]

salma3

294 | 31

3.88 ГБ

В этой теме нет новых непрочитанных сообщений. Лего Фильм: Бэтмен / The LEGO Batman Movie [Мультфильм, фэнтези, боевик, 2017] WEB-DL 1080p, Dub [iTunes]

salma3

6231 | 854

3.83 ГБ


Начать новую тему Ответить на тему  [ 1 сообщение ] 




Для Мосгорсуда, Роскомнадзора и рекламодателей:: mosgorsud-torrent[собачка]yandex.ru
cron