Торрент файл
скачать торрент магнет ссылка Добавлен: 06 апр 2018, 11:39
Размер: 39.78 ГБ
Сидеров: 10
Личеров: 4
Статус: (salma3)
Автор

СообщениеДобавлено: 06 апр 2018, 11:39 

Не в сети
Супермодератор
Аватара пользователя
Дата регистрации:
15 фев 2012, 16:44
Возраст: 29
Спасибо: 7320 / 2147
Сообщения: 73192
Год выпуска: 2017
Жанр: Мультфильм, мюзикл, фэнтези
Режиссер: Ли Анкрич, Эдриан Молина

В ролях: Энтони Гонсалес, Гаэль Гарсиа Берналь, Бенджамин Брэтт, Аланна Юбак, Рене Виктор, Хайме Камиль, Альфонсо Арау, Херберт Сигенса, Габриэль Иглесиас, Ломбардо Бойяр

О фильме:
12-летний Мигель живет в мексиканской деревушке в семье сапожников и тайно мечтает стать музыкантом. Тайно — потому что в его семейном клане музыка считается проклятием. Когда-то его прадед оставил свою жену, прабабку Мигеля, ради мечты, которая теперь не дает спокойно жить Мигелю. С тех пор музыкальная тема в семье стала табу. Мигель обнаруживает, что между ним и его любимым певцом Эрнесто де ла Крусом, ныне покойным, существует некая — пока неназванная — связь. Паренек отправляется к своему кумиру в Страну Мертвых, где встречает души своих предков. Коко знакомится там с духом-трикстером по имени Эктор (в облике скелета), который становится его напарником-проводником. Вдвоем они отправляются на поиски де ла Круса.



Страна: США
Продолжительность: 01:45:02
Перевод: Дублированный | Лицензия

Файл
Контейнер: MKV
Качество: BDRemux 2160p
Видео: HEVC, HDR, 46.1 Mb/s, 3840x2160, 23.976 fps
Аудио #1: RUS|| AC-3, 48.0 kHz, 6 ch, 640 kb/s, CBR | Дублированный, Лицензия |
Аудио #2: ENG|| TrueHD+Atmos, 48.0 kHz, 8 ch, 6433 kb/s, VBR | Original |
Аудио #3: ENG|| AC-3, 48.0 kHz, 6 ch, 640 kb/s, CBR | Original |
Аудио #3: ENG|| AC-3, 48.0 kHz, 2 ch, 320 kb/s, CBR | Audiodeion |

Субтитры: Русские (forced, full), английские (Full, SDH, SDH colored)

Общее
Уникальный идентификатор : 329272771623334502107332167693925579669 (0xF7B7A10AFFA705B06B0358CAE4D77B95)
Полное имя : Coco.2017.2160p.BluRay.REMUX.HEVC.HDR.Lic.AC3.TrueHD.7.1.Atmos.IVA(RUS.ENG).ExKinoRay.mkv
Формат : Matroska
Версия формата : Version 4 / Version 2
Размер файла : 39,8 Гбайт
Продолжительность : 1 ч. 45 м.
Режим общего битрейта : Переменный
Общий поток : 54,2 Мбит/сек
Название фильма : Тайна Коко / Coco ( 2017 ) BDRemux | HDR, 4K | IVA(RUS.ENG) | ExKinoRay
Дата кодирования : UTC 2018-04-05 21:48:01
Программа кодирования : mkvmerge v20.0.0 ('I Am The Sun') 64-bit
Библиотека кодирования : libebml v1.3.5 + libmatroska v1.4.8
Обложка : Yes

Видео
Идентификатор : 1
Формат : HEVC
Формат/Информация : High Efficiency Video Coding
Коммерческое название : HDR10
Профиль формата : Main 10@L5.1@High
Идентификатор кодека : V_MPEGH/ISO/HEVC
Продолжительность : 1 ч. 45 м.
Битрейт : 46,1 Мбит/сек
Ширина : 3840 пикселей
Высота : 2160 пикселей
Соотношение сторон : 16:9
Режим частоты кадров : Постоянный
Частота кадров : 23,976 (23976/1000) кадра/сек
Частота кадров в оригинале : 23,976 (24000/1001) кадра/сек
Цветовое пространство : YUV
Субдискретизация насыщенности : 4:2:0 (Type 2)
Битовая глубина : 10 бит
Бит/(Пиксели*Кадры) : 0.232
Размер потока : 33,8 Гбайт (85%)
Заголовок : Coco.2017.2160p.BluRay.REMUX.HEVC.HDR
Библиотека кодирования : ATEME Titan File 3.8.12 (4.8.12.0)
Язык : English
Default : Да
Forced : Нет
Цветовой диапазон : Limited
Основные цвета : BT.2020
Характеристики трансфера : PQ
Коэффициенты матрицы : BT.2020 non-constant
MasteringDisplay_Luminance : min: 0.0000 cd/m2, max: 1000 cd/m2

Аудио #1
Идентификатор : 2
Формат : AC-3
Формат/Информация : Audio Coding 3
Идентификатор кодека : A_AC3
Продолжительность : 1 ч. 45 м.
Вид битрейта : Постоянный
Битрейт : 640 Кбит/сек
Каналы : 6 каналов
Расположение каналов : Front: L C R, Side: L R, LFE
Частота : 48,0 КГц
Частота кадров : 31,250 кадров/сек (1536 SPF)
Битовая глубина : 16 бит
Метод сжатия : С потерями
Размер потока : 481 Мбайт (1%)
Заголовок : | Дублированный, Лицензия |
Язык : Russian
Default : Да
Forced : Нет

Аудио #2
Идентификатор : 3
Формат : TrueHD
Профиль формата : TrueHD+Atmos / TrueHD
Идентификатор кодека : A_TRUEHD
Продолжительность : 1 ч. 45 м.
Вид битрейта : Переменный
Битрейт : 6432 Кбит/сек
Максимальный битрейт : 8217 Кбит/сек
Каналы : Object Based / 8 каналов
Расположение каналов : Object Based / Front: L C R, Side: L R, Back: L R, LFE
Частота : / 48,0 КГц
Частота кадров : 1200,000 кадров/сек (40 SPF)
Метод сжатия : Без потерь
Задержка видео : 32 мс.
Размер потока : 4,72 Гбайт (12%)
Заголовок : | Original |
Язык : English
Default : Нет
Forced : Нет

Аудио #3
Идентификатор : 4
Формат : AC-3
Формат/Информация : Audio Coding 3
Идентификатор кодека : A_AC3
Продолжительность : 1 ч. 45 м.
Вид битрейта : Постоянный
Битрейт : 640 Кбит/сек
Каналы : 6 каналов
Расположение каналов : Front: L C R, Side: L R, LFE
Частота : 48,0 КГц
Частота кадров : 31,250 кадров/сек (1536 SPF)
Битовая глубина : 16 бит
Метод сжатия : С потерями
Задержка видео : 31 мс.
Размер потока : 481 Мбайт (1%)
Заголовок : | Original, AC3 Core |
Язык : English
Default : Нет
Forced : Нет

Аудио #4
Идентификатор : 5
Формат : AC-3
Формат/Информация : Audio Coding 3
Идентификатор кодека : A_AC3
Продолжительность : 1 ч. 45 м.
Вид битрейта : Постоянный
Битрейт : 320 Кбит/сек
Каналы : 2 канала
Расположение каналов : Front: L R
Частота : 48,0 КГц
Частота кадров : 31,250 кадров/сек (1536 SPF)
Битовая глубина : 16 бит
Метод сжатия : С потерями
Размер потока : 240 Мбайт (1%)
Заголовок : | Audiodeion |
Язык : English
Default : Нет
Forced : Нет

Текст #1
Идентификатор : 6
Формат : UTF-8
Идентификатор кодека : S_TEXT/UTF8
Идентификатор кодека/Информация : UTF-8 Plain Text
Продолжительность : 1 ч. 33 м.
Битрейт : 0 бит/сек
ElementCount : 17
Размер потока : 483 байт (0%)
Заголовок : Forced
Язык : Russian
Default : Да
Forced : Да

Текст #2
Идентификатор : 7
Формат : UTF-8
Идентификатор кодека : S_TEXT/UTF8
Идентификатор кодека/Информация : UTF-8 Plain Text
Продолжительность : 1 ч. 34 м.
Битрейт : 94 бит/сек
ElementCount : 1168
Размер потока : 65,7 Кбайт (0%)
Заголовок : Full
Язык : Russian
Default : Нет
Forced : Нет

Текст #3
Идентификатор : 8
Формат : UTF-8
Идентификатор кодека : S_TEXT/UTF8
Идентификатор кодека/Информация : UTF-8 Plain Text
Продолжительность : 1 ч. 37 м.
Битрейт : 63 бит/сек
ElementCount : 1441
Размер потока : 45,6 Кбайт (0%)
Заголовок : Full
Язык : English
Default : Нет
Forced : Нет

Текст #4
Идентификатор : 9
Формат : UTF-8
Идентификатор кодека : S_TEXT/UTF8
Идентификатор кодека/Информация : UTF-8 Plain Text
Продолжительность : 1 ч. 38 м.
Битрейт : 77 бит/сек
ElementCount : 1722
Размер потока : 55,9 Кбайт (0%)
Заголовок : SDH
Язык : English
Default : Нет
Forced : Нет

Текст #5
Идентификатор : 10
Формат : UTF-8
Идентификатор кодека : S_TEXT/UTF8
Идентификатор кодека/Информация : UTF-8 Plain Text
Продолжительность : 1 ч. 38 м.
Битрейт : 109 бит/сек
ElementCount : 1723
Размер потока : 78,5 Кбайт (0%)
Заголовок : SDH Colored
Язык : English
Default : Нет
Forced : Нет

Меню #1
00:00:00.000 : en:Chapter 1
00:06:40.191 : en:Chapter 2
00:08:41.520 : en:Chapter 3
00:11:13.589 : en:Chapter 4
00:14:20.317 : en:Chapter 5
00:17:06.942 : en:Chapter 6
00:18:20.932 : en:Chapter 7
00:22:05.990 : en:Chapter 8
00:24:19.958 : en:Chapter 9
00:27:44.829 : en:Chapter 10
00:29:07.912 : en:Chapter 11
00:32:15.307 : en:Chapter 12
00:35:18.407 : en:Chapter 13
00:41:25.524 : en:Chapter 14
00:47:04.696 : en:Chapter 15
00:50:54.175 : en:Chapter 16
00:54:23.885 : en:Chapter 17
00:56:45.026 : en:Chapter 18
01:01:42.614 : en:Chapter 19
01:03:28.137 : en:Chapter 20
01:08:58.216 : en:Chapter 21
01:15:17.262 : en:Chapter 22
01:18:56.773 : en:Chapter 23
01:21:31.761 : en:Chapter 24
01:24:31.816 : en:Chapter 25
01:28:23.464 : en:Chapter 26
01:33:14.755 : en:Chapter 27
01:36:10.472 : en:Chapter 28





Релиз от:


_________________
Проголосуй за трекер Открытый торрент трекер - RUS-MEDIA.ORG

Проголосуй Открытый торрент трекер - RUS-MEDIA.ORG


Вернуться к началу
 Профиль Отправить личное сообщение  
 
   Похожие торренты   Автор   Торрент   Размер 
В этой теме нет новых непрочитанных сообщений. Тайна Коко / Coco [Мультфильм, мюзикл, фэнтези, 2017] BDRemux 2160p, Dub [Tunes] [4K]

salma3

3 | 9

39.35 ГБ

В этой теме нет новых непрочитанных сообщений. Тайна Коко / Coco [Мультфильм, мюзикл, фэнтези, 2017] BDRemux 2160p, Dub [Tunes] [4K]

salma3

0 | 1

39.59 ГБ

В этой теме нет новых непрочитанных сообщений. Тайна Коко / Coco [Мультфильм, мюзикл, фэнтези, 2017] BDRemux 1080p, Dub [Tunes]

salma3

0 | 1

21.24 ГБ

В этой теме нет новых непрочитанных сообщений. Тайна Коко / Coco [Мультфильм, мюзикл, фэнтези, 2017] BDRip, Dub [Лицензия]

salma3

2 | 1

1.46 ГБ

В этой теме нет новых непрочитанных сообщений. Тайна Коко / Coco [Мультфильм, мюзикл, фэнтези, 2017] BDRip, Dub [Tunes]

salma3

4258 | 120

1.41 ГБ

В этой теме нет новых непрочитанных сообщений. Тайна Коко / Coco [Мультфильм, мюзикл, фэнтези, 2017] WEB-DLRip, Mvo [GreenРай Studio]

salma3

4 | 2

1.37 ГБ

В этой теме нет новых непрочитанных сообщений. Тайна Коко / Coco [Мультфильм, мюзикл, фэнтези, 2017] BDRip 720p, Dub [Tunes]

salma3

57 | 22

5.05 ГБ


Начать новую тему Ответить на тему  [ 1 сообщение ] 




Для Мосгорсуда, Роскомнадзора и рекламодателей:: mosgorsud-torrent[собачка]yandex.ru
cron