Торрент файл
скачать торрент магнет ссылка Добавлен: 05 апр 2018, 21:13
Размер: 35.94 ГБ
Сидеров: 0
Личеров: 0
Статус: (salma3)
Автор

СообщениеДобавлено: 05 апр 2018, 21:13 

Не в сети
Супермодератор
Аватара пользователя
Дата регистрации:
15 фев 2012, 16:44
Возраст: 29
Спасибо: 7379 / 2147
Сообщения: 76077
Год выхода: 2017
Жанр: мультфильм, фэнтези, комедия
Режиссер: Ли Анкрич, Эдриан Молина / Lee Unkrich, Adrian Molina

В ролях: Энтони Гонсалес, Гаэль Гарсиа Берналь, Бенджамин Брэтт, Аланна Юбак, Рене Виктор, Хайме Камиль, Альфонсо Арау, Херберт Сигенса, Габриэль Иглесиас, Ломбардо Бойяр...

О фильме:
12-летний Мигель живёт в мексиканской деревушке в семье сапожников и тайно мечтает стать музыкантом. Тайно — потому что в его семейном клане музыка считается проклятием. Когда-то его прапрадед оставил свою жену, прапрабабку Мигеля, ради мечты, которая теперь не даёт спокойно жить Мигелю. С тех пор музыкальная тема в семье стала табу. Мигель обнаруживает, что между ним и его любимым певцом Эрнесто де ла Крусом, ныне покойным, существует некая — пока неназванная — связь. Паренёк отправляется к своему кумиру в Страну Мёртвых, где встречает души своих предков. Мигель знакомится там с духом-трикстером по имени Гектор (в облике скелета), который становится его проводником. Вдвоём они отправляются на поиски де ла Круса.



Страна: США
Продолжительность: 01:45:02
Перевод: Дублированный [Лицензия]

Файл
Кодек: BDMV
Качество: Blu-ray Disc 1080p EUR
Видео: MPEG-4 AVC Video 24055 kbps 1080p / 23,976 fps / 16:9 / High Profile 4.1
Звук:
Аудио #1: DTS-HD Master Audio English 4479 kbps 7.1 / 48 kHz / 4479 kbps / 24-bit (DTS Core: 5.1 / 48 kHz / 1509 kbps / 24-bit / DN -3dB)
Аудио #2: DTS-HD High-Res Audio English 2046 kbps 5.1 / 48 kHz / 2046 kbps / 24-bit (DTS Core: 5.1 / 48 kHz / 1509 kbps / 24-bit / DN -3dB)
Аудио #3: Dolby Digital Audio English 320 kbps 2.0 / 48 kHz / 320 kbps / DN -3dB
Аудио #4: Dolby Digital Audio English 320 kbps 2.0 / 48 kHz / 320 kbps / DN -3dB
Аудио #5: Dolby Digital Audio Arabic 640 kbps 5.1 / 48 kHz / 640 kbps / DN -4dB
Аудио #6: Dolby Digital Audio Polish 640 kbps 5.1 / 48 kHz / 640 kbps / DN -4dB
Аудио #7: Dolby Digital Audio Russian 640 kbps 5.1 / 48 kHz / 640 kbps / DN -4dB
Аудио #8: Dolby Digital Audio Kazakh 640 kbps 5.1 / 48 kHz / 640 kbps / DN -4dB
Аудио #9: Dolby Digital Audio English 320 kbps 2.0 / 48 kHz / 320 kbps / DN -4dB



DISC INFO:

Disc Title: COCO_BLUEBIRD
Disc Size: 38 588 359 862 bytes
Protection: AACS
BD-Java: Yes
BDInfo: 0.5.10

PLAYLIST REPORT:

Name: 00800.MPLS
Length: 1:45:02.003 (h:m:s.ms)
Size: 28 939 204 608 bytes
Total Bitrate: 36,74 Mbps

VIDEO:

Codec Bitrate Deion
----- ------- -----------
MPEG-4 AVC Video 24055 kbps 1080p / 23,976 fps / 16:9 / High Profile 4.1

AUDIO:

Codec Language Bitrate Deion
----- -------- ------- -----------
DTS-HD Master Audio English 4479 kbps 7.1 / 48 kHz / 4479 kbps / 24-bit (DTS Core: 5.1 / 48 kHz / 1509 kbps / 24-bit / DN -3dB)
DTS-HD High-Res Audio English 2046 kbps 5.1 / 48 kHz / 2046 kbps / 24-bit (DTS Core: 5.1 / 48 kHz / 1509 kbps / 24-bit / DN -3dB)
Dolby Digital Audio English 320 kbps 2.0 / 48 kHz / 320 kbps / DN -3dB
Dolby Digital Audio English 320 kbps 2.0 / 48 kHz / 320 kbps / DN -3dB
Dolby Digital Audio Arabic 640 kbps 5.1 / 48 kHz / 640 kbps / DN -4dB
Dolby Digital Audio Polish 640 kbps 5.1 / 48 kHz / 640 kbps / DN -4dB
Dolby Digital Audio Russian 640 kbps 5.1 / 48 kHz / 640 kbps / DN -4dB
Dolby Digital Audio Kazakh 640 kbps 5.1 / 48 kHz / 640 kbps / DN -4dB
Dolby Digital Audio English 320 kbps 2.0 / 48 kHz / 320 kbps / DN -4dB

SUBTITLES:

Codec Language Bitrate Deion
----- -------- ------- -----------
Presentation Graphics English 45,007 kbps
Presentation Graphics Arabic 18,239 kbps
Presentation Graphics Polish 34,174 kbps
Presentation Graphics Russian 32,237 kbps
Presentation Graphics English 77,574 kbps
Presentation Graphics Russian 60,028 kbps
Presentation Graphics English 0,018 kbps
Presentation Graphics Arabic 0,141 kbps
Presentation Graphics Polish 0,262 kbps
Presentation Graphics Russian 0,292 kbps

FILES:

Name Time In Length Size Total Bitrate
---- ------- ------ ---- -------------
00810.M2TS 0:00:00.000 0:00:45.170 203 464 704 36 035
00811.M2TS 0:00:45.170 0:00:29.779 144 549 888 38 832
00812.M2TS 0:01:14.949 0:04:13.711 1 168 152 576 36 834
00813.M2TS 0:05:28.661 0:00:17.726 82 962 432 37 442
00814.M2TS 0:05:46.387 0:00:36.119 167 184 384 37 029
00815.M2TS 0:06:22.507 0:00:17.684 81 715 200 36 966
00816.M2TS 0:06:40.191 0:00:37.871 174 544 896 36 871
00817.M2TS 0:07:18.062 0:00:17.767 82 219 008 37 019
00818.M2TS 0:07:35.830 0:00:18.226 83 503 104 36 651
00819.M2TS 0:07:54.056 0:01:03.021 291 059 712 36 947
00820.M2TS 0:08:57.078 0:02:56.509 801 527 808 36 328
00821.M2TS 0:11:53.587 0:02:26.729 667 367 424 36 386
00822.M2TS 0:14:20.317 0:02:24.185 659 650 560 36 600
00823.M2TS 0:16:44.503 0:02:06.584 584 011 776 36 909
00824.M2TS 0:18:51.088 0:00:31.114 142 362 624 36 604
00825.M2TS 0:19:22.202 0:00:46.546 213 725 184 36 733
00826.M2TS 0:20:08.749 0:05:51.392 1 607 043 072 36 587
00827.M2TS 0:26:00.141 0:00:18.685 87 023 616 37 259
00828.M2TS 0:26:18.827 0:00:49.466 229 490 688 37 115
00829.M2TS 0:27:08.293 0:00:27.652 129 079 296 37 343
00830.M2TS 0:27:35.945 0:00:32.115 149 673 984 37 284
00831.M2TS 0:28:08.061 0:00:57.932 265 918 464 36 721
00832.M2TS 0:29:05.994 0:02:52.922 783 458 304 36 245
00833.M2TS 0:31:58.916 0:00:16.391 74 600 448 36 410
00834.M2TS 0:32:15.308 0:04:14.045 1 167 138 816 36 754
00835.M2TS 0:36:29.353 0:00:25.442 116 533 248 36 643
00836.M2TS 0:36:54.795 0:19:50.230 5 439 830 016 36 563
00837.M2TS 0:56:45.026 0:00:16.182 75 448 320 37 298
00838.M2TS 0:57:01.209 0:00:41.624 190 826 496 36 675
00839.M2TS 0:57:42.834 0:00:18.226 84 271 104 36 988
00840.M2TS 0:58:01.060 0:08:13.534 2 281 426 944 36 981
00841.M2TS 1:06:14.595 0:00:15.557 70 754 304 36 384
00842.M2TS 1:06:30.152 0:00:54.804 253 759 488 37 042
00843.M2TS 1:07:24.957 0:00:17.517 81 260 544 37 111
00844.M2TS 1:07:42.474 0:11:07.500 3 067 570 176 36 765
00845.M2TS 1:18:49.974 0:00:20.145 94 046 208 37 347
00846.M2TS 1:19:10.119 0:07:55.558 2 206 513 152 37 119
00847.M2TS 1:27:05.678 0:00:15.974 75 061 248 37 591
00848.M2TS 1:27:21.652 0:01:17.660 352 358 400 36 297
00849.M2TS 1:28:39.313 0:00:16.349 76 449 792 37 407
00850.M2TS 1:28:55.663 0:04:14.003 1 146 040 320 36 095
00851.M2TS 1:33:09.666 0:00:20.311 93 179 904 36 700
00852.M2TS 1:33:29.978 0:01:00.477 277 708 800 36 736
00853.M2TS 1:34:30.455 0:00:23.398 107 661 312 36 810
00854.M2TS 1:34:53.854 0:01:01.311 285 806 592 37 293
00855.M2TS 1:35:55.165 0:00:15.306 80 418 816 42 030
00856.M2TS 1:36:10.472 0:02:15.051 624 199 680 36 975
00857.M2TS 1:38:25.524 0:00:25.650 117 823 488 36 747
00858.M2TS 1:38:51.174 0:05:22.155 1 477 718 016 36 696
00859.M2TS 1:44:13.329 0:00:48.673 221 110 272 36 342



Релиз от:


_________________
Проголосуй за трекер Открытый торрент трекер - RUS-MEDIA.ORG

Проголосуй Открытый торрент трекер - RUS-MEDIA.ORG


Вернуться к началу
 Профиль Отправить личное сообщение  
 
   Похожие торренты   Автор   Торрент   Размер 
В этой теме нет новых непрочитанных сообщений. Тайна Коко 3D / Coco 3D [мультфильм, фэнтези, комедия, 2017] Blu-Ray EUR 1080p, Dub [Лицензия] [3D-Video]

salma3

0 | 0

37.48 ГБ

В этой теме нет новых непрочитанных сообщений. Тайна Коко / Coco [мультфильм, фэнтези, комедия, 2017] BDRip 1080p, Dub [3D-Video] [iTunes]

salma3

0 | 0

8.09 ГБ

В этой теме нет новых непрочитанных сообщений. Тайна Коко / Coco [Мультфильм, мюзикл, фэнтези, 2017] BDRip, Dub [Лицензия]

salma3

2 | 1

1.46 ГБ

В этой теме нет новых непрочитанных сообщений. Тайна Коко / Coco [Мультфильм, мюзикл, фэнтези, 2017] BDRemux 2160p, Dub [Лицензия]

salma3

10 | 4

39.78 ГБ

В этой теме нет новых непрочитанных сообщений. Тайна Коко / Coco [Мультфильм, мюзикл, фэнтези, 2017] BDRip 1080p, Dub [Tunes]

salma3

0 | 0

8.82 ГБ

В этой теме нет новых непрочитанных сообщений. Тайна Коко / Coco [Мультфильм, мюзикл, фэнтези, 2017] BDRemux 1080p, Dub [Tunes]

salma3

0 | 1

21.24 ГБ

В этой теме нет новых непрочитанных сообщений. Тайна Коко / Coco [Мультфильм, мюзикл, фэнтези, 2017] BDRip, Dub [Tunes]

salma3

4258 | 120

1.41 ГБ


Начать новую тему Ответить на тему  [ 1 сообщение ] 




Для Мосгорсуда, Роскомнадзора и рекламодателей:: mosgorsud-torrent[собачка]yandex.ru
cron