Торрент файл
скачать торрент магнет ссылка Добавлен: 04 апр 2018, 10:27
Размер: 2.74 ГБ
Сидеров: 0
Личеров: 0
Статус: (salma3)
Автор

СообщениеДобавлено: 04 апр 2018, 10:27 

Не в сети
Супермодератор
Аватара пользователя
Дата регистрации:
15 фев 2012, 16:44
Возраст: 28
Спасибо: 7204 / 2147
Сообщения: 65100
Год выхода: 2017
Жанр: Комедия
Страна: Канада, Великобритания, США
Перевод: Дублированный | iTunes
Продолжительность: 01:21:46
Режиссер: Питер Лепениотис

В ролях: Бекки Джи, Джош Пек, Тара Стронг, Оливия Холт, Дэвид Кокнер, Джефф Данэм, Патрик Стамп, Нэш Гриер, Мэдисон Де Ла Гарза, Джордж Лопес и др.
Роли дублировали: Элиза Мартиросова, Антон Колесников, Елена Ивасишина, Лина Иванова, Александр Новиков и др.

О фильме: Переезжая в старинный особняк, никто даже не подозревал, что большой дом скрывает «маленькие» тайны. Садовые гномы, живущие тут, веками защищали наш мир от злобных троггов. У людей не останется выбора — они должны будут присоединиться к великой битве…



Качество: WEB-DL 720р
Видео: 1280@960x692 (1.85:1), 25.000 fps, MPEG-4 AVC ~3 932 kbps avg
Аудио №1: 48.0 kHz, AC3 Dolby Digital, 3/2 (L,C,R,l,r) + LFE ch, ~384 kbps | RUS
Аудио №2: 48.0 kHz, AC3 Dolby Digital, 3/2 (L,C,R,l,r) + LFE ch, ~384 kbps | UKR



General
Unique ID : 223734930301220265763214917872332082929 (0xA851C7BA5A085502B96ABC5D8AE88EF1)
Complete name : GH0my.B.D0m3.2O18.D.WEB-DL.72Op.mkv
Format : Matroska
Format version : Version 2
File size : 2.74 GiB
Duration : 1h 21mn
Overall bit rate : 4 796 Kbps
Encoded date : UTC 2018-04-03 12:15:43
Writing application : mkvmerge v8.3.0 ('Over the Horizon') 64bit
Writing library : libebml v1.3.1 + libmatroska v1.4.2

Video
ID : 1
Format : AVC
Format/Info : Advanced Video Codec
Format profile : Main@L3.1
Format settings, CABAC : No
Format settings, ReFrames : 2 frames
Codec ID : V_MPEG4/ISO/AVC
Duration : 1h 21mn
Bit rate : 3 932 Kbps
Width : 960 pixels
Height : 692 pixels
Display aspect ratio : 1.85:1
Frame rate mode : Constant
Frame rate : 25.000 fps
Color space : YUV
Chroma subsampling : 4:2:0
Bit depth : 8 bits
Scan type : Progressive
Bits/(Pixel*Frame) : 0.237
Stream size : 2.25 GiB (82%)
Language : English
Default : Yes
Forced : No
Color range : Limited
Color primaries : BT.709
Transfer characteristics : BT.709
Matrix coefficients : BT.709

Audio #1
ID : 2
Format : AC-3
Format/Info : Audio Coding 3
Mode extension : CM (complete main)
Format settings, Endianness : Big
Codec ID : A_AC3
Duration : 1h 21mn
Bit rate mode : Constant
Bit rate : 384 Kbps
Channel(s) : 6 channels
Channel positions : Front: L C R, Side: L R, LFE
Sampling rate : 48.0 KHz
Compression mode : Lossy
Stream size : 225 MiB (8%)
Language : Russian
Default : Yes
Forced : No

Audio #2
ID : 3
Format : AC-3
Format/Info : Audio Coding 3
Mode extension : CM (complete main)
Format settings, Endianness : Big
Codec ID : A_AC3
Duration : 1h 21mn
Bit rate mode : Constant
Bit rate : 384 Kbps
Channel(s) : 6 channels
Channel positions : Front: L C R, Side: L R, LFE
Sampling rate : 48.0 KHz
Compression mode : Lossy
Stream size : 225 MiB (8%)
Language : Ukrainian
Default : No
Forced : No

Menu
00:00:00.000 : en:Глава 1
00:06:59.920 : en:Глава 2
00:14:00.320 : en:Глава 3
00:21:03.240 : en:Глава 4
00:28:19.120 : en:Глава 5
00:36:40.200 : en:Глава 6
00:44:30.560 : en:Глава 7
00:51:53.560 : en:Глава 8
00:59:42.400 : en:Глава 9
01:07:41.840 : en:Глава 10


_________________
Проголосуй за трекер Открытый торрент трекер - RUS-MEDIA.ORG

Проголосуй Открытый торрент трекер - RUS-MEDIA.ORG


Вернуться к началу
 Профиль Отправить личное сообщение  
 
   Похожие торренты   Автор   Торрент   Размер 
В этой теме нет новых непрочитанных сообщений. Гномы в доме / Gnome Alone [Комедия, 2017] WEB-DL 1080p, Dub [iTunes]

salma3

6 | 10

3.36 ГБ

В этой теме нет новых непрочитанных сообщений. SuperАлиби / Alibi.com [Комедия, 2017] BDRip 720р, Dub [iTunes]

salma3

659 | 103

4.46 ГБ

В этой теме нет новых непрочитанных сообщений. Одноклассницы: Новый поворот [комедия, 2017] WEB-DL 720р [iTunes]

salma3

482 | 21

2.36 ГБ

В этой теме нет новых непрочитанных сообщений. Секс-Трип / The Sex Trip [фэнтези, комедия, 2017] WEB-DL 720р, Dub [iTunes]

salma3

129 | 6

2.58 ГБ

В этой теме нет новых непрочитанных сообщений. Однажды в Германии / Es war einmal in Deutschland... [драма, комедия, военный, 2017] WEB-DL 720р, Mvo [iTunes]

salma3

907 | 343

3.23 ГБ

В этой теме нет новых непрочитанных сообщений. Полуночный человек / The Midnight Man [ужасы, 2017] WEB-DL 720р, Dub [iTunes]

salma3

30 | 6

2.92 ГБ

В этой теме нет новых непрочитанных сообщений. Superнянь 2 / Babysitting 2 [комедия, 2015] BDRip 720р, Dub [iTunes]

salma3

18 | 11

5.49 ГБ


Начать новую тему Ответить на тему  [ 1 сообщение ] 




Для Мосгорсуда, Роскомнадзора и рекламодателей:: mosgorsud-torrent[собачка]yandex.ru
cron