Торрент файл
скачать торрент магнет ссылка Добавлен: 29 мар 2018, 21:20
Размер: 5.6 ГБ
Сидеров: 6
Личеров: 2
Статус: (salma3)
Автор

СообщениеДобавлено: 29 мар 2018, 21:20 

Не в сети
Супермодератор
Аватара пользователя
Дата регистрации:
15 фев 2012, 16:44
Возраст: 28
Спасибо: 7290 / 2147
Сообщения: 70489
Год выпуска: 1998
Страна: США
Жанр: Мультфильм, комедия, приключения, семейный
Продолжительность: 01:34:54
Перевод: Dub, MVO, DVO, AVO, ORiginal
Субтитры: Русские (полные), Английские (полные)

Режиссер: Джон Лассетер, Эндрю Стэнтон


В ролях: Дэйв Фоли, Кевин Спейси, Джулия Луис-Дрейфус, Хайден Панеттьери, Филлис Диллер, Ричард Кайнд, Дэвид Хайд Пирс, Джо Рэнфт, Дэнис Лири, Джонатан Харрис, Мэдлин Кан, Бонни Хант, Майкл МакШейн, Джон Ратценбергер, Брэд Гэррет, Родди МакДауэлл, Эди МакКлёрг, Алекс Рокко, Дэвид Оссман, Карлос Алазраки, Дэвид Л. Лэндер, Джек Эйнджел, Боб Берген, Кимберли Дж. Браун, Роджер Бампасс, Энтони Берч, Дженнифер Дарлинг, Рэйчел Дэвей, Деби Дерриберри, Пол Айдинг, Джесика Эванс, Билл Фармер, Сэм Гифальди, Брэд Холл, Джесс Харнелл, Бренден Хикки, Кейт Ходжес, Денис Джонсон

Описание: Действия картины происходят на острове, в колонии муравьев. Среди них особо выделяется изобретатель Флик. Муравьи занимались тем, что собирали дань в виде еды для кузнечиков. Однажды Флик случайно сбросил в воду всю собранную в виде дани еду. Кузнечики в результате чего увеличили дань. Флик решил противостоять этому. Так началась освободительная борьба муравьев за независимость.

Качество: BDRip 720p / 60 FPS
Формат: MKV
Видео кодек: H.264
Аудио кодек: AC3
Видео: AVC, 1280x544 (2.35:1), 5442 kbps, 60.000 fps, 0.130 bpp
Аудио#1: AC3 / 5.1 / 48 kHz / 448 kbps / 16 bit | DUB
Аудио#2: AC3 / 5.1 / 48 kHz / 448 kbps / 16 bit | MVO
Аудио#3: AC3 / 5.1 / 48 kHz / 448 kbps / 16 bit | MVO Киномания
Аудио#4: AC3 / 5.1 / 48 kHz / 640 kbps / 16 bit | DVO - П. Гланц, Т. Казакова
Аудио#5: AC3 / 5.1 / 48 kHz / 384 kbps / 16 bit | AVO - Ю. Живов
Аудио#6: AC3 / 5.1 / 48 kHz / 640 kbps / 16 bit | Original



General
Unique ID : 305037671466682822390019149073358864368 (0xE57C1E5A3C47E8A9562BFA71E56D3FF0)
Complete name : D:TorrentsПриключения Флика BDRip 720p 60fps.mkv
Format : Matroska
Format version : Version 4 / Version 2
File size : 5.60 GiB
Duration : 1 h 34 min
Overall bit rate : 8 456 kb/s
Movie name : A bug's life (1998) by Tiberiumsun69
Encoded date : UTC 2018-03-29 13:12:01
Writing application : mkvmerge v20.0.0 ('I Am The Sun') 64-bit
Writing library : libebml v1.3.5 + libmatroska v1.4.8

Video
ID : 1
Format : AVC
Format/Info : Advanced Video Codec
Format profile : High@L4.1
Format settings : CABAC / 12 Ref Frames
Format settings, CABAC : Yes
Format settings, ReFrames : 12 frames
Codec ID : V_MPEG4/ISO/AVC
Duration : 1 h 34 min
Bit rate : 5 442 kb/s
Width : 1 280 pixels
Height : 544 pixels
Display aspect ratio : 2.35:1
Frame rate mode : Constant
Frame rate : 60.000 FPS
Color space : YUV
Chroma subsampling : 4:2:0
Bit depth : 8 bits
Scan type : Progressive
Bits/(Pixel*Frame) : 0.130
Stream size : 3.61 GiB (64%)
Writing library : x264 core 146 r2538 121396c
Encoding settings : cabac=1 / ref=12 / deblock=1:-2:-2 / analyse=0x3:0x133 / me=umh / subme=10 / psy=1 / psy_rd=1.00:0.00 / mixed_ref=1 / me_range=32 / chroma_me=1 / trellis=2 / 8x8dct=1 / cqm=0 / deadzone=21,11 / fast_pskip=0 / chroma_qp_offset=-2 / threads=12 / lookahead_threads=2 / sliced_threads=0 / nr=0 / decimate=1 / interlaced=0 / bluray_compat=0 / constrained_intra=0 / bframes=8 / b_pyramid=2 / b_adapt=2 / b_bias=0 / direct=3 / weightb=1 / open_gop=0 / weightp=2 / keyint=240 / keyint_min=24 / scenecut=40 / intra_refresh=0 / rc_lookahead=60 / rc=crf / mbtree=0 / crf=18.0 / qcomp=0.80 / qpmin=0 / qpmax=69 / qpstep=4 / vbv_maxrate=62500 / vbv_bufsize=78125 / crf_max=0.0 / nal_hrd=none / filler=0 / ip_ratio=1.40 / pb_ratio=1.30 / aq=1:1.00
Language : English
Default : Yes
Forced : No

Audio #1
ID : 2
Format : AC-3
Format/Info : Audio Coding 3
Codec ID : A_AC3
Duration : 1 h 34 min
Bit rate mode : Constant
Bit rate : 448 kb/s
Channel(s) : 6 channels
Channel positions : Front: L C R, Side: L R, LFE
Sampling rate : 48.0 kHz
Frame rate : 31.250 FPS (1536 SPF)
Bit depth : 16 bits
Compression mode : Lossy
Stream size : 304 MiB (5%)
Title : Дублированный
Language : Russian
Service kind : Complete Main
Default : Yes
Forced : No

Audio #2
ID : 3
Format : AC-3
Format/Info : Audio Coding 3
Codec ID : A_AC3
Duration : 1 h 34 min
Bit rate mode : Constant
Bit rate : 448 kb/s
Channel(s) : 6 channels
Channel positions : Front: L C R, Side: L R, LFE
Sampling rate : 48.0 kHz
Frame rate : 31.250 FPS (1536 SPF)
Bit depth : 16 bits
Compression mode : Lossy
Stream size : 304 MiB (5%)
Title : Многоголосый закадровый
Language : Russian
Service kind : Complete Main
Default : No
Forced : No

Audio #3
ID : 4
Format : AC-3
Format/Info : Audio Coding 3
Codec ID : A_AC3
Duration : 1 h 34 min
Bit rate mode : Constant
Bit rate : 448 kb/s
Channel(s) : 6 channels
Channel positions : Front: L C R, Side: L R, LFE
Sampling rate : 48.0 kHz
Frame rate : 31.250 FPS (1536 SPF)
Bit depth : 16 bits
Compression mode : Lossy
Stream size : 304 MiB (5%)
Title : Многоголосый закадровый, Киномания
Language : Russian
Service kind : Complete Main
Default : No
Forced : No

Audio #4
ID : 5
Format : AC-3
Format/Info : Audio Coding 3
Codec ID : A_AC3
Duration : 1 h 34 min
Bit rate mode : Constant
Bit rate : 640 kb/s
Channel(s) : 6 channels
Channel positions : Front: L C R, Side: L R, LFE
Sampling rate : 48.0 kHz
Frame rate : 31.250 FPS (1536 SPF)
Bit depth : 16 bits
Compression mode : Lossy
Stream size : 434 MiB (8%)
Title : Двухголосый закадровый, П.Гланц и Т.Казакова
Language : Russian
Service kind : Complete Main
Default : No
Forced : No

Audio #5
ID : 6
Format : AC-3
Format/Info : Audio Coding 3
Codec ID : A_AC3
Duration : 1 h 34 min
Bit rate mode : Constant
Bit rate : 384 kb/s
Channel(s) : 6 channels
Channel positions : Front: L C R, Side: L R, LFE
Sampling rate : 48.0 kHz
Frame rate : 31.250 FPS (1536 SPF)
Bit depth : 16 bits
Compression mode : Lossy
Stream size : 261 MiB (5%)
Title : AC3 5.1 @ 384 kbps - Одноголосый закадровый, Ю.Живов
Language : Russian
Service kind : Complete Main
Default : No
Forced : No

Audio #6
ID : 7
Format : AC-3
Format/Info : Audio Coding 3
Codec ID : A_AC3
Duration : 1 h 34 min
Bit rate mode : Constant
Bit rate : 640 kb/s
Channel(s) : 6 channels
Channel positions : Front: L C R, Side: L R, LFE
Sampling rate : 48.0 kHz
Frame rate : 31.250 FPS (1536 SPF)
Bit depth : 16 bits
Compression mode : Lossy
Stream size : 434 MiB (8%)
Title : Оригинал
Language : English
Service kind : Complete Main
Default : No
Forced : No

Text #1
ID : 8
Format : UTF-8
Codec ID : S_TEXT/UTF8
Codec ID/Info : UTF-8 Plain Text
Duration : 1 h 33 min
Bit rate : 126 b/s
Count of elements : 1393
Stream size : 87.0 KiB (0%)
Title : Полные
Language : Russian
Default : No
Forced : No

Text #2
ID : 9
Format : UTF-8
Codec ID : S_TEXT/UTF8
Codec ID/Info : UTF-8 Plain Text
Duration : 1 h 34 min
Bit rate : 84 b/s
Count of elements : 1441
Stream size : 58.5 KiB (0%)
Title : Полные
Language : English
Default : No
Forced : No

Menu
00:00:00.000 : en:Chapter 1
00:05:00.000 : en:Chapter 2
00:10:00.000 : en:Chapter 3
00:15:00.000 : en:Chapter 4
00:20:00.000 : en:Chapter 5
00:25:00.000 : en:Chapter 6
00:30:00.000 : en:Chapter 7
00:35:00.000 : en:Chapter 8
00:40:00.000 : en:Chapter 9
00:45:00.000 : en:Chapter 10
00:50:00.000 : en:Chapter 11
00:55:00.000 : en:Chapter 12
01:00:00.000 : en:Chapter 13
01:05:00.000 : en:Chapter 14
01:10:00.000 : en:Chapter 15
01:15:00.000 : en:Chapter 16
01:20:00.000 : en:Chapter 17
01:25:00.000 : en:Chapter 18
01:30:00.000 : en:Chapter 19


_________________
Проголосуй за трекер Открытый торрент трекер - RUS-MEDIA.ORG

Проголосуй Открытый торрент трекер - RUS-MEDIA.ORG


Вернуться к началу
 Профиль Отправить личное сообщение  
 
   Похожие торренты   Автор   Торрент   Размер 
В этой теме нет новых непрочитанных сообщений. Тайная жизнь домашних животных / The Secret Life of Pets (мультфильм, комедия, приключения, семейный, 2016) BDRip 720p от HQCLUB | D | Лицензия

marya111

0 | 2

5.19 ГБ

В этой теме нет новых непрочитанных сообщений. Тайная жизнь домашних животных / The Secret Life of Pets (мультфильм, комедия, приключения, семейный, 2016) BDRip 720p от Scarabey | Лицензия

marya111

275 | 94

2.66 ГБ

В этой теме нет новых непрочитанных сообщений. Тайная жизнь домашних животных / The Secret Life of Pets (Ярроу Чейни, Крис Рено) [2016, мультфильм, комедия, приключения, семейный, BDRip 720p | iTunes]

marya111

298 | 32

4.21 ГБ

В этой теме нет новых непрочитанных сообщений. Тайная жизнь домашних животных / The Secret Life of Pets [мультфильм, комедия, приключения, семейный, 2016] BDRip-AVC, Dub [iTunes]

salma3

329 | 97

2.14 ГБ

В этой теме нет новых непрочитанных сообщений. Тайная жизнь домашних животных / The Secret Life of Pets (мультфильм, комедия, приключения, семейный, 2016) BDRip от HELLYWOOD | Лицензия

marya111

137 | 11

1.45 ГБ

В этой теме нет новых непрочитанных сообщений. Тайная жизнь домашних животных / The Secret Life of Pets (мультфильм, комедия, приключения, семейный, 2016) BDRip от HQCLUB | Лицензия

marya111

9 | 1

1.45 ГБ

В этой теме нет новых непрочитанных сообщений. Тайная жизнь домашних животных / The Secret Life of Pets ( мультфильм, комедия, приключения, семейный, 2016) BDRip 1080p от HQCLUB | D | Лицензия

marya111

45 | 13

9.99 ГБ


Начать новую тему Ответить на тему  [ 1 сообщение ] 




Для Мосгорсуда, Роскомнадзора и рекламодателей:: mosgorsud-torrent[собачка]yandex.ru
cron