Торрент файл
скачать торрент магнет ссылка Добавлен: 26 мар 2018, 20:56
Размер: 5.31 ГБ
Сидеров: 0
Личеров: 0
Статус: (salma3)
Автор

СообщениеДобавлено: 26 мар 2018, 20:56 

Не в сети
Супермодератор
Аватара пользователя
Дата регистрации:
15 фев 2012, 16:44
Возраст: 28
Спасибо: 7290 / 2147
Сообщения: 70823
Год выпуска: 1969-1983
Жанр: мультфильм, короткометражка, семейный
Продолжительность: 01:06:20
Режиссёр: Роман Качанов
Роли озвучивали:
Василий Ливанов — Крокодил Гена, сторож зоопарка
Клара Румянова — Чебурашка
Владимир Раутбарт — Шапокляк
Владимир Кенигсон — Продавец
Тамара Дмитриева — Галя, пионеры
Ирина Мазинг — Шапокляк
Владимир Ферапонтов — милиционер, почтальон, песенка крокодила Гены, браконьер Петя, директор фабрики, песня «Голубой вагон»
Георгий Бурков — продавец
Юрий Андреев — Шапокляк, директор, водитель-араб

Описание: Добрый крокодил Гена работал в зоопарке... крокодилом, а по вечерам очень тосковал от одиночества, пока не дал объявление о том, что ищет друзей. И друзья появились - девочка с собачкой и Чебурашка - неизвестное науке создание, но зато доброе и милое.



Файл
Качество: BDRip 1080p
Формат: MKV
Видео кодек: H264
Аудио кодек: AC3
Видео: MPEG-4 AVC, 1440x1080, 11000 Kbps, 25.000 fps
Аудио: Dolby AC3, 48000 Hz, 6ch, 448 kbp

Релиз от:

1. Крокодил Гена (1969) 00:19:26
Описание: Крокодил Гена работает в зоопарке — крокодилом. Каждый день вечером он возвращается домой в свою одинокую квартиру. Наконец ему надоедает играть самому с собой в шахматы и Гена решает завести себе друзей. На объявления расклеенные по городу откликаются звери и люди. Первой приходит девочка Галя с бездомным щенком, а вслед за ней Чебурашка…

2. Чебурашка (1972) 00:18:51
Описание: У крокодила Гены день рождения. Его поздравляет Чебурашка и дарит ему подарок. Дальше друзья занимаются тем, что пытаются построить детскую площадку и помогают пионерам собирать металлолом.

3. Шапокляк (1974) 00:18:54
Описание: Крокодил Гена и Чебурашка отправляются на морской отдых на поезде. Шапокляк крадёт их билеты, и друзей высаживают на первой же станции. Дальше друзья совместно борются с туристами-браконьерами и за экологическую чистоту лесов Подмосковья.

4. Чебурашка идёт в школу (1983) 00:09:20
Описание: Чебурашка не встретил Крокодила Гену в аэропорту. Оказывается, Чебурашка не владеет грамотой и не смог прочитать телеграмму Гены. Выход один — нужно идти в школу, тем более что завтра как раз 1 сентября. Школа же закрыта на ремонт, который никак не могут закончить.

General
Unique ID : 215955660551432431484634904282624914120 (0xA2778C1DEC5B97CDAE3906A118AB72C8)
Complete name : F:Torrent 21969-1983.Cheburashka.likko.KORSAR.mkv
Format : Matroska
Format version : Version 4 / Version 2
File size : 1.55 GiB
Duration : 19 min 26 s
Overall bit rate : 11.4 Mb/s
Movie name : 1969-1983 Чебурашка и крокодил Гена
Encoded date : UTC 2017-02-20 13:16:43
Writing application : mkvmerge v8.3.0 ('Over the Horizon') 64bit
Writing library : libebml v1.3.1 + libmatroska v1.4.2

Video
ID : 1
Format : AVC
Format/Info : Advanced Video Codec
Format profile : High@L4.1
Format settings, CABAC : Yes
Format settings, ReFrames : 5 frames
Codec ID : V_MPEG4/ISO/AVC
Duration : 19 min 26 s
Bit rate : 11.0 Mb/s
Width : 1 440 pixels
Height : 1 080 pixels
Display aspect ratio : 4:3
Frame rate mode : Constant
Frame rate : 25.000 FPS
Color space : YUV
Chroma subsampling : 4:2:0
Bit depth : 8 bits
Scan type : Progressive
Bits/(Pixel*Frame) : 0.283
Stream size : 1.49 GiB (96%)
Title : 1969-1983 Чебурашка и крокодил Гена
Writing library : x264 core 146 r2538 121396c
Encoding settings : cabac=1 / ref=5 / deblock=1:-1:-1 / analyse=0x3:0x133 / me=umh / subme=11 / psy=1 / psy_rd=1.00:0.15 / mixed_ref=1 / me_range=24 / chroma_me=1 / trellis=2 / 8x8dct=1 / cqm=0 / deadzone=21,11 / fast_pskip=0 / chroma_qp_offset=-3 / threads=12 / lookahead_threads=2 / sliced_threads=0 / nr=0 / decimate=1 / interlaced=0 / bluray_compat=0 / constrained_intra=0 / bframes=8 / b_pyramid=2 / b_adapt=2 / b_bias=0 / direct=3 / weightb=1 / open_gop=0 / weightp=2 / keyint=250 / keyint_min=25 / scenecut=40 / intra_refresh=0 / rc=2pass / mbtree=0 / bitrate=11000 / ratetol=1.0 / qcomp=0.60 / qpmin=0 / qpmax=69 / qpstep=4 / cplxblur=20.0 / qblur=0.5 / ip_ratio=1.40 / pb_ratio=1.30 / aq=2:1.00
Language : Russian
Default : Yes
Forced : No

Audio
ID : 2
Format : AC-3
Format/Info : Audio Coding 3
Mode extension : CM (complete main)
Format settings, Endianness : Big
Codec ID : A_AC3
Duration : 19 min 26 s
Bit rate mode : Constant
Bit rate : 448 kb/s
Channel(s) : 6 channels
Channel positions : Front: L C R, Side: L R, LFE
Sampling rate : 48.0 kHz
Frame rate : 31.250 FPS (1536 spf)
Bit depth : 16 bits
Compression mode : Lossy
Stream size : 62.3 MiB (4%)
Language : Russian
Default : Yes
Forced : No


_________________
Проголосуй за трекер Открытый торрент трекер - RUS-MEDIA.ORG

Проголосуй Открытый торрент трекер - RUS-MEDIA.ORG


Вернуться к началу
 Профиль Отправить личное сообщение  
 
   Похожие торренты   Автор   Торрент   Размер 
В этой теме нет новых непрочитанных сообщений. Трое из Простоквашино. Сборник мультфильмов (Владимир Попов) [1978, мультфильм, семейный, BDRip, 1080p] / Мультфильмы (HD/BD Video)

marya111

33 | 2

2.62 ГБ

В этой теме нет новых непрочитанных сообщений. Снеговик / The Snowman [мультфильм, короткометражка, фэнтези, приключения, семейный, 1982] BDRip-AVC

salma3

3 | 1

1.45 ГБ

В этой теме нет новых непрочитанных сообщений. Сборник мультфильмов студии «Узбекфильм» - Коллекция [Мультфильм, рисованный, 1971-2009] DVDRip, WEBRip

salma3

106 | 30

8.52 ГБ

В этой теме нет новых непрочитанных сообщений. Первое свидание Райли (мультфильм, короткометражка, мелодрама, комедия, семейный, 2015) BDRip 720p | D

marya111

95 | 12

185.77 МБ

В этой теме нет новых непрочитанных сообщений. Рождество Чарли Брауна / A Charlie Brown Christmas [мультфильм, комедия, семейный, короткометражка, 1965] BDRip 720p, Mvo

salma3

28 | 11

2.32 ГБ

В этой теме нет новых непрочитанных сообщений. Кажется, я видел котика / I Tawt I Taw a Puddy Tat [мультфильм, короткометражка, мюзикл, комедия, 2011] BDRip 1080p, Dub

salma3

24 | 1

289.35 МБ

В этой теме нет новых непрочитанных сообщений. Маша и Медведь. На кухне с Машей! (Сборник мультфильмов про еду) (2016) WEB-DLRip от ExKinoRay

marya111

94 | 11

756.14 МБ


Начать новую тему Ответить на тему  [ 1 сообщение ] 




Для Мосгорсуда, Роскомнадзора и рекламодателей:: mosgorsud-torrent[собачка]yandex.ru
cron