COVID-19 - Последняя информация о коронавирусе на сайте Минздрава




Торрент файл
скачать торрент магнет ссылка Добавлен: 23 мар 2018, 12:40
Размер: 933.87 МБ
Сидеров: 0
Личеров: 0
Статус: (salma3)
Автор

СообщениеДобавлено: 23 мар 2018, 12:40 

Не в сети
Супермодератор
Аватара пользователя
Дата регистрации:
15 фев 2012, 16:44
Возраст: 30
Спасибо: 8264 / 2148
Сообщения: 96324
Год выпуска: 2018
Жанр: боевик, история, криминал, мультфильмы
Выпущено: США, DC Entertainment
Режиссер: Сэм Лью

В ролях:
Дженнифер Карпентер, Тара Стронг, Брюс Гринвуд, Скотт Гордон-Паттерсон, Кари Уорер, Грей ДеЛайл, Джон Ди Маджио, Энтони Хэд, Линкольн Мелчер, Юрий Ловенталь

Описание сериала:
В альтернативной ситуации, в 1889 г., Брюс Уэйн возвратится в Готэм из своего странствия по Европе. Городок викторианской эпохи всё так же притягивает злоумышленников. Цепочка таинственных и бесчеловечных убийств вынуждает обитателей предполагать, что киллер — Бэтмен. Тёмному Рыцарю кидает вызов самый знаменитый маньяк XIX столетия — Джек-потрошитель

Страна: США
Продолжительность: ~01:17:02
Перевод: Любительский двухголосый [RusFilm]



Файл
Качество: WEBRip 720p
Видео: MPEG-4 AVC, ~ 1500 Кбит/с, 1280x720
Аудио: 48 kHz, AC3 Dolby Digital, 2/0 (L,R) ch, ~192 kbps


Формат : Matroska
Версия формата : Version 4 / Version 2
Размер файла : 934 Мбайт
Продолжительность : 1 ч. 17 м.
Общий поток : 1693 Кбит/сек
Дата кодирования : UTC 2018-03-23 00:27:33
Программа кодирования : mkvmerge v6.0.0 ('Coming Up For Air') built on Jan 20 2013 09:52:00
Библиотека кодирования : libebml v1.3.0 + libmatroska v1.4.0

Видео
Идентификатор : 1
Формат : AVC
Формат/Информация : Advanced Video Codec
Профиль формата : High@L4.1
Параметр CABAC формата : Да
Параметр ReFrames формата : 4 кадра
Идентификатор кодека : V_MPEG4/ISO/AVC
Продолжительность : 1 ч. 17 м.
Битрейт : 1500 Кбит/сек
Ширина : 1280 пикселей
Высота : 720 пикселей
Соотношение сторон : 16:9
Режим частоты кадров : Постоянный
Частота кадров : 23,976 кадра/сек
Цветовое пространство : YUV
Субдискретизация насыщенности : 4:2:0
Битовая глубина : 8 бит
Тип развёртки : Прогрессивная
Бит/(Пиксели*Кадры) : 0.068
Размер потока : 809 Мбайт (87%)
Библиотека кодирования : x264 core 152 r2851M ba24899
Настройки программы : cabac=1 / ref=4 / deblock=1:-1:-1 / analyse=0x3:0x113 / me=umh / subme=9 / psy=1 / psy_rd=1.00:0.15 / mixed_ref=1 / me_range=24 / chroma_me=1 / trellis=2 / 8x8dct=1 / cqm=0 / deadzone=21,11 / fast_pskip=1 / chroma_qp_offset=-3 / threads=32 / lookahead_threads=4 / sliced_threads=0 / nr=0 / decimate=1 / interlaced=0 / bluray_compat=0 / constrained_intra=0 / bframes=3 / b_pyramid=2 / b_adapt=2 / b_bias=0 / direct=3 / weightb=1 / open_gop=0 / weightp=2 / keyint=250 / keyint_min=25 / scenecut=40 / intra_refresh=0 / rc_lookahead=50 / rc=2pass / mbtree=1 / bitrate=1500 / ratetol=1.0 / qcomp=0.60 / qpmin=0 / qpmax=69 / qpstep=4 / cplxblur=20.0 / qblur=0.5 / vbv_maxrate=31250 / vbv_bufsize=31250 / nal_hrd=none / filler=0 / ip_ratio=1.40 / aq=3:1.00
Default : Да
Forced : Нет

Аудио
Идентификатор : 2
Формат : AC-3
Формат/Информация : Audio Coding 3
Расширение режима : CM (complete main)
Параметр Endianness формата : Big
Идентификатор кодека : A_AC3
Продолжительность : 1 ч. 17 м.
Вид битрейта : Постоянный
Битрейт : 192 Кбит/сек
Каналы : 2 канала
Расположение каналов : Front: L R
Частота : 48,0 КГц
Битовая глубина : 16 бит
Метод сжатия : С потерями
Задержка видео : -43 мс.
Размер потока : 106 Мбайт (11%)
Default : Да
Forced : Нет
[screens/]


_________________
Проголосуй за трекер Открытый торрент трекер - RUS-MEDIA.ORG

Проголосуй Открытый торрент трекер - RUS-MEDIA.ORG


Скачать книги и аудио книги через торрент


Вернуться к началу
 Профиль Отправить личное сообщение  
 
   Похожие торренты   Автор   Торрент   Размер 
В этой теме нет новых непрочитанных сообщений. Бэтмен: Готэм в газовом свете / Batman: Gotham by Gaslight [мультфильм, фэнтези, боевик, 2018] BDRip 720p, Mvo [Jaskier]

salma3

0 | 1

2.06 ГБ

В этой теме нет новых непрочитанных сообщений. Бэтмен: Готэм в газовом свете / Batman: Gotham by Gaslight [мультфильм, фэнтези, боевик, 2018] BDRip 720p, Mvo [D1production]

salma3

17 | 2

3.38 ГБ

В этой теме нет новых непрочитанных сообщений. Бэтмен: Готэм в газовом свете / Batman: Gotham by Gaslight [мультфильм, фэнтези, боевик, 2018] HDRip, Mvo [Jaskier]

salma3

0 | 1

1.37 ГБ

В этой теме нет новых непрочитанных сообщений. Бэтмен: Готэм в газовом свете / Batman: Gotham by Gaslight [мультфильм, фэнтези, боевик, 2018] BDRip 1080p, Mvo [Jaskier]

salma3

0 | 0

3.67 ГБ

В этой теме нет новых непрочитанных сообщений. Бэтмен: Готэм в газовом свете / Batman: Gotham by Gaslight [мультфильм, фэнтези, боевик, 2018] BDRip 1080p, Mvo [D1production]

salma3

2 | 3

5.57 ГБ

В этой теме нет новых непрочитанных сообщений. Готэм / Gotham [S04] [триллер, драма, криминал, 2017] HDTV 720p, Dvo [Sunshine Studio]

salma3

0 | 0

18.54 ГБ

В этой теме нет новых непрочитанных сообщений. Готэм / Gotham [S05] [триллер, драма, 2019] WEBRip 720p, Mvo [GostFilm]

salma3

1 | 101

13.73 ГБ


Начать новую тему Ответить на тему  [ 1 сообщение ] 




Для Мосгорсуда, Роскомнадзора и рекламодателей:: rstracker[собака]yandex.ru
cron