Торрент файл
скачать торрент магнет ссылка Добавлен: 23 мар 2018, 12:03
Размер: 11.05 ГБ
Сидеров: 1
Личеров: 1
Статус: (salma3)
Автор

СообщениеДобавлено: 23 мар 2018, 12:03 

Не в сети
Супермодератор
Аватара пользователя
Дата регистрации:
15 фев 2012, 16:44
Возраст: 29
Спасибо: 7331 / 2147
Сообщения: 73810
Год выхода: 2018
Жанр: Мультфильм, фантастика, боевик
Режиссер: Этан Сполдинг

В ролях: Кейт Микуччи, Кевин Майкл Ричардсон, Джеймс Арнольд Тейлор, Трой Бэйкер, Нолан Норт, Хари Пэйтон, Дуайт Шульц, Эрик Бауза

О фильме:
В эпицентре сюжета оказывается супергерой по имени Флеш. Кроме него и участников Лиги Справедливости в кинопроекте примут участие Атом, Затана, Огненный Шторм и Доктор Фэйт. На этот раз Обратный Флеш использует некий прибор под названием спидфорс. Это устройство заключает главного персонажа во временную петлю. Он каждый раз переживает один и тот же день заново. Узнав о том, что легендарный супергерой потерял свои сверхчеловеческие особенности, Бэтмен выгоняет его из команды. Теперь, когда он остался совершенно один и без поддержки друзей, Флеш начинает искать виновника всех своих бед. Его ждет нелегкое испытание, ведь он до сих пор во временной петле. Он должен в течение дня решить свои проблемы. Необходимо найти злодея и противостоять его коварному замыслу. При условии, что герой лишен суперсилы, сделать это будет не так-то просто. Но он верить в свои силы. Сможет ли супергерой доказать всему миру, а прежде всего самому себе, что его зря выгнали из Лиги Справедливости? А тем временем легендарные герои продолжают защищать мир от преступников различных квалификаций. И новые лица в этом непростом деле только в плюс, ведь зло настолько сильно в этот раз, что свежие силы будут только кстати.



Страна: США
Продолжительность: 01:18:26
Перевод: Любительский [многоголосый, закадровый]

Файл
Кодек: h.264
Качество: BDRemux 1080p
Видео: MPEG-4 AVC, 17.2 Mбит/с, 1920x1080, 23,976 кадр/с
Звук:
Русский (E-AC3, 6 ch, 640 Кбит/с) / Любительский многоголосый [HDrezka Studio]
Английский (DTS-HD MA, 6 ch, 2332 Кбит/с)
Субтитры: Русские, английские

Семпл

General
Unique ID : 282161393595739620883282250832922535390 (0xD4464EC5ECFBD6F23A6E1F91DE53E5DE)
Complete name : D:uTorrentLego_Flash.2018.BDRemux.1080p.MediaClub.mkv
Format : Matroska
Format version : Version 4 / Version 2
File size : 11.0 GiB
Duration : 1 h 18 min
Overall bit rate mode : Variable
Overall bit rate : 20.2 Mb/s
Encoded date : UTC 2018-03-20 00:49:23
Writing application : mkvmerge v19.0.0 ('Brave Captain') 64-bit
Writing library : libebml v1.3.5 + libmatroska v1.4.8
Cover : Yes
Attachments : cover.jpg

Video
ID : 1
Format : AVC
Format/Info : Advanced Video Codec
Format profile : High@L4.1
Format settings : CABAC / 4 Ref Frames
Format settings, CABAC : Yes
Format settings, RefFrames : 4 frames
Codec ID : V_MPEG4/ISO/AVC
Duration : 1 h 18 min
Bit rate mode : Variable
Bit rate : 17.2 Mb/s
Maximum bit rate : 36.0 Mb/s
Width : 1 920 pixels
Height : 1 080 pixels
Display aspect ratio : 16:9
Frame rate mode : Constant
Frame rate : 23.976 (24000/1001) FPS
Color space : YUV
Chroma subsampling : 4:2:0
Bit depth : 8 bits
Scan type : Progressive
Bits/(Pixel*Frame) : 0.346
Stream size : 9.41 GiB (85%)
Title : BDRemux by Silverok
Default : Yes
Forced : No

Audio #1
ID : 2
Format : E-AC-3
Format/Info : Enhanced Audio Coding 3
Codec ID : A_EAC3
Duration : 1 h 18 min
Bit rate mode : Constant
Bit rate : 640 kb/s
Channel(s) : 6 channels
Channel positions : Front: L C R, Side: L R, LFE
Sampling rate : 48.0 kHz
Frame rate : 187.500 FPS (256 SPF)
Compression mode : Lossy
Stream size : 359 MiB (3%)
Title : Профессиональный многоголосый [HDrezka Studio]
Language : Russian
Service kind : Complete Main
Default : Yes
Forced : No

Audio #2
ID : 3
Format : DTS
Format/Info : Digital Theater Systems
Format profile : MA / Core
Codec ID : A_DTS
Duration : 1 h 18 min
Bit rate mode : Variable / Constant
Bit rate : 2 332 kb/s / 1 509 kb/s
Channel(s) : 6 channels
Channel positions : Front: L C R, Side: L R, LFE
Sampling rate : 48.0 kHz
Frame rate : 93.750 FPS (512 SPF)
Bit depth : 24 bits
Compression mode : Lossless / Lossy
Stream size : 1.28 GiB (12%)
Language : English
Default : No
Forced : No

Text #1
ID : 4
Format : UTF-8
Codec ID : S_TEXT/UTF8
Codec ID/Info : UTF-8 Plain Text
Duration : 1 h 15 min
Bit rate : 140 b/s
Count of elements : 1355
Stream size : 77.2 KiB (0%)
Title : Full
Language : Russian
Default : Yes
Forced : No

Text #2
ID : 5
Format : UTF-8
Codec ID : S_TEXT/UTF8
Codec ID/Info : UTF-8 Plain Text
Duration : 1 h 17 min
Bit rate : 76 b/s
Count of elements : 1466
Stream size : 43.5 KiB (0%)
Title : SDH
Language : English
Default : No
Forced : No

Menu
00:00:00.000 : en:00:00:00.000
00:10:31.172 : en:00:10:31.172
00:20:55.671 : en:00:20:55.671
00:34:27.482 : en:00:34:27.482
00:44:50.980 : en:00:44:50.980
00:51:53.652 : en:00:51:53.652
01:00:27.415 : en:01:00:27.415
01:07:35.176 : en:01:07:35.176
01:15:23.602 : en:01:15:23.602


Релиз от: | Silverok


_________________
Проголосуй за трекер Открытый торрент трекер - RUS-MEDIA.ORG

Проголосуй Открытый торрент трекер - RUS-MEDIA.ORG


Вернуться к началу
 Профиль Отправить личное сообщение  
 
   Похожие торренты   Автор   Торрент   Размер 
В этой теме нет новых непрочитанных сообщений. Лего Фильм: Бэтмен / The LEGO Batman Movie [Мультфильм, фэнтези, боевик, 2017] BDRemux 1080p, Dub [Лицензия]

salma3

77 | 17

17.96 ГБ

В этой теме нет новых непрочитанных сообщений. ЛЕГО Ниндзяго Фильм / The LEGO Ninjago Movie [Мультфильм, боевик, комедия, 2017] BDRemux 1080p, Dub [Лицензия]

salma3

0 | 0

18.58 ГБ

В этой теме нет новых непрочитанных сообщений. ЛЕГО Ниндзяго Фильм / The LEGO Ninjago Movie [Мультфильм, боевик, комедия, 2017] BDRemux 1080p, Dub [Лицензия] [3D-Video]

salma3

0 | 0

25.93 ГБ

В этой теме нет новых непрочитанных сообщений. Лего Фильм: Бэтмен / The LEGO Batman Movie [Мультфильм, фэнтези, боевик, 2017] UHD BDRemux 2160p, Dub [4K] [Лицензия]

salma3

3 | 7

35.54 ГБ

В этой теме нет новых непрочитанных сообщений. Лего Фильм: Бэтмен / The LEGO Batman Movie [Мультфильм, фэнтези, боевик, 2017] WEB-DL 1080p, Dub [iTunes]

salma3

6231 | 854

3.83 ГБ

В этой теме нет новых непрочитанных сообщений. ЛЕГО Ниндзяго Фильм / The LEGO Ninjago Movie [Мультфильм, боевик, комедия, 2017] BDRip 1080p, Dub [Лицензия]

salma3

0 | 0

7.74 ГБ

В этой теме нет новых непрочитанных сообщений. Лего Фильм: Бэтмен / The LEGO Batman Movie [Мультфильм, фэнтези, боевик, 2017] Blu-Ray CEE 1080p, Dub [3D-Video] [Лицензия]

salma3

25 | 33

35.05 ГБ


Начать новую тему Ответить на тему  [ 1 сообщение ] 




Для Мосгорсуда, Роскомнадзора и рекламодателей:: mosgorsud-torrent[собачка]yandex.ru
cron