Торрент файл
скачать торрент магнет ссылка Добавлен: 17 мар 2018, 13:20
Размер: 4.32 ГБ
Сидеров: 29
Личеров: 15
Статус: (salma3)
Автор

СообщениеДобавлено: 17 мар 2018, 13:20 

Не в сети
Супермодератор
Аватара пользователя
Дата регистрации:
15 фев 2012, 16:44
Возраст: 28
Спасибо: 7226 / 2147
Сообщения: 68270
Год выхода: 2017
Жанр: Мультфильм, фэнтези, комедия
Режиссер: Тимоти Рекарт

Роли озвучивают: Стивен Ян, Кигэн-Майкл Ки, Эйди Брайант, Джина Родригез, Закари Левай, Кристофер Пламмер, Винг Реймз, Габриэль Иглесиас, Келли Кларксон, Энтони Андерсон

О фильме:
Маленький отважный ослик по имени Бо работает на мельнице, мечтая вырваться на свободу и повидать мир. И в один прекрасный день его желание исполняется! Бо видит в небе необычайно яркую звезду и решает отправиться по пути, который она указывает. Его ждут удивительные приключения и встреча с новыми друзьями, среди которых найдется милая овечка, голубь-шутник и даже троица верблюдов. Разношерстной компании путешественников предстоит стать невольными участниками и свидетелями самого волшебного и чудесного события — Рождества.



Страна: США
Студия: Affirm Films, Columbia Pictures, Franklin Entertainment, Jim Henson Company, The, Sony Pictures Animation, Walden Media
Продолжительность: 01:26:06
Перевод:
Профессиональный (полное дублирование) | Blu-ray NOR

Файл
Качество: BDRip 720p
Формат: MKV
Кодек: MPEG-4 AVC
Видео: 1280x692 (1,85:1), 23.976 fps, MPEG-4 AVC ~ 5026 Кbps avg, 0.237 bit/pixel
Аудио #1: AC3, 48,0 kHz, 6 ch, ~640.00 kbps avg | русский | Blu-ray NOR
Аудио #2: DTS, 48,0 kHz, 6 ch, ~1509.00 kbps avg | английский | Оригинал

Субтитры: Русские, английские

Общее
Уникальный идентификатор : 246107924152467932660454561463412953918 (0xB926A97D43807FB88F75327B9A9F933E)
Полное имя : The.Star.2017.720p.BluRay.x264.Rus.Eng.mkv
Формат : Matroska
Версия формата : Version 4 / Version 2
Размер файла : 4,32 Гбайт
Продолжительность : 1 ч. 26 м.
Общий поток : 7178 Кбит/сек
Название фильма : Путеводная звезда (2017)
Дата кодирования : UTC 2018-03-17 04:00:41
Программа кодирования : mkvmerge v9.7.1 ('Pandemonium') 64bit
Библиотека кодирования : libebml v1.3.4 + libmatroska v1.4.5

Видео
Идентификатор : 1
Формат : AVC
Формат/Информация : Advanced Video Codec
Профиль формата : High@L4.1
Настройки формата : CABAC / 9 Ref Frames
Параметр CABAC формата : Да
Параметр ReFrames формата : 9 кадров
Идентификатор кодека : V_MPEG4/ISO/AVC
Продолжительность : 1 ч. 26 м.
Битрейт : 5026 Кбит/сек
Ширина : 1280 пикселей
Высота : 692 пикселя
Соотношение сторон : 1,85:1
Режим частоты кадров : Постоянный
Частота кадров : 23,976 (24000/1001) кадра/сек
Цветовое пространство : YUV
Субдискретизация насыщенности : 4:2:0
Битовая глубина : 8 бит
Тип развёртки : Прогрессивная
Бит/(Пиксели*Кадры) : 0.237
Размер потока : 3,02 Гбайт (70%)
Заголовок : The.Star.2017.720p.BluRay.x264.Rus.Eng
Библиотека кодирования : x264 core 155 r2901 7d0ff22
Настройки программы : cabac=1 / ref=9 / deblock=1:-3:-3 / analyse=0x3:0x113 / me=umh / subme=10 / psy=1 / psy_rd=1.02:0.00 / mixed_ref=1 / me_range=32 / chroma_me=1 / trellis=2 / 8x8dct=1 / cqm=1 / deadzone=21,11 / fast_pskip=0 / chroma_qp_offset=-1 / threads=12 / lookahead_threads=2 / sliced_threads=0 / nr=0 / decimate=1 / interlaced=0 / bluray_compat=0 / constrained_intra=0 / bframes=8 / b_pyramid=2 / b_adapt=2 / b_bias=0 / direct=3 / weightb=1 / open_gop=0 / weightp=2 / keyint=230 / keyint_min=23 / scenecut=40 / intra_refresh=0 / rc_lookahead=40 / rc=crf / mbtree=0 / crf=14.5 / qcomp=0.61 / qpmin=5 / qpmax=69 / qpstep=4 / vbv_maxrate=62500 / vbv_bufsize=78125 / crf_max=0.0 / nal_hrd=none / filler=0 / ip_ratio=1.30 / pb_ratio=1.20 / aq=1:0.75
Язык : English
Default : Да
Forced : Нет

Аудио #1
Идентификатор : 2
Формат : AC-3
Формат/Информация : Audio Coding 3
Идентификатор кодека : A_AC3
Продолжительность : 1 ч. 26 м.
Вид битрейта : Постоянный
Битрейт : 640 Кбит/сек
Каналы : 6 каналов
Расположение каналов : Front: L C R, Side: L R, LFE
Частота : 48,0 КГц
Частота кадров : 31,250 кадров/сек (1536 SPF)
Битовая глубина : 16 бит
Метод сжатия : С потерями
Размер потока : 394 Мбайт (9%)
Заголовок : Blu-ray NOR
Язык : Russian
Default : Да
Forced : Нет

Аудио #2
Идентификатор : 3
Формат : DTS
Формат/Информация : Digital Theater Systems
Идентификатор кодека : A_DTS
Продолжительность : 1 ч. 26 м.
Вид битрейта : Постоянный
Битрейт : 1509 Кбит/сек
Каналы : 6 каналов
Расположение каналов : Front: L C R, Side: L R, LFE
Частота : 48,0 КГц
Частота кадров : 93,750 кадра/сек (512 SPF)
Битовая глубина : 24 бит
Метод сжатия : С потерями
Размер потока : 929 Мбайт (21%)
Язык : English
Default : Нет
Forced : Нет

Текст #1
Идентификатор : 4
Формат : UTF-8
Идентификатор кодека : S_TEXT/UTF8
Идентификатор кодека/Информация : UTF-8 Plain Text
Продолжительность : 1 ч. 18 м.
Битрейт : 104 бит/сек
ElementCount : 1287
Размер потока : 60,0 Кбайт (0%)
Заголовок : Полные
Язык : Russian
Default : Нет
Forced : Нет

Текст #2
Идентификатор : 5
Формат : UTF-8
Идентификатор кодека : S_TEXT/UTF8
Идентификатор кодека/Информация : UTF-8 Plain Text
Продолжительность : 1 ч. 16 м.
Битрейт : 69 бит/сек
ElementCount : 1283
Размер потока : 38,9 Кбайт (0%)
Язык : English
Default : Нет
Forced : Нет

Текст #3
Идентификатор : 6
Формат : UTF-8
Идентификатор кодека : S_TEXT/UTF8
Идентификатор кодека/Информация : UTF-8 Plain Text
Продолжительность : 1 ч. 23 м.
Битрейт : 77 бит/сек
ElementCount : 1638
Размер потока : 47,5 Кбайт (0%)
Заголовок : SDH
Язык : English
Default : Нет
Forced : Нет

Меню
00:00:00.000 : en:Chapter 1
00:04:20.385 : en:Chapter 2
00:08:07.112 : en:Chapter 3
00:13:11.290 : en:Chapter 4
00:18:07.753 : en:Chapter 5
00:21:29.246 : en:Chapter 6
00:25:59.224 : en:Chapter 7
00:30:26.825 : en:Chapter 8
00:34:41.997 : en:Chapter 9
00:39:09.722 : en:Chapter 10
00:47:09.910 : en:Chapter 11
00:52:29.772 : en:Chapter 12
00:57:39.414 : en:Chapter 13
01:04:37.874 : en:Chapter 14
01:09:35.171 : en:Chapter 15
01:13:40.875 : en:Chapter 16


_________________
Проголосуй за трекер Открытый торрент трекер - RUS-MEDIA.ORG

Проголосуй Открытый торрент трекер - RUS-MEDIA.ORG


Вернуться к началу
 Профиль Отправить личное сообщение  
 
   Похожие торренты   Автор   Торрент   Размер 
В этой теме нет новых непрочитанных сообщений. Путеводная звезда / The Star [Мультфильм, фэнтези, комедия, 2017] BDRip 1080p, Dub [Лицензия]

salma3

21 | 6

7.38 ГБ

В этой теме нет новых непрочитанных сообщений. Путеводная звезда / The Star [Мультфильм, фэнтези, комедия, 2017] BDRemux 1080p, Dub [Лицензия]

salma3

0 | 1

15.83 ГБ

В этой теме нет новых непрочитанных сообщений. Путеводная звезда / The Star [фэнтези, комедия, приключения, 2017] BDRip, Dub [Лицензия]

salma3

0 | 0

1.37 ГБ

В этой теме нет новых непрочитанных сообщений. Смурфики: Затерянная деревня / Smurfs: The Lost Village [Мультфильм, фэнтези, комедия, 2017] BDRip 720p, Dub [Лицензия]

salma3

68 | 15

6.18 ГБ

В этой теме нет новых непрочитанных сообщений. Жестяная звезда / Tin Star [S01] [Драма, 2017] WEBRip 720p, Dvo [Sunshine Studio]

salma3

205 | 212

6.24 ГБ

В этой теме нет новых непрочитанных сообщений. Аисты / Storks [мультфильм, фэнтези, комедия, 2016] BDRip 720p, Dub [Лицензия]

salma3

82 | 22

4 ГБ

В этой теме нет новых непрочитанных сообщений. Бэтмен / The LEGO Batman Movie [Мультфильм, фэнтези, боевик, 2017] BDRip 720p, Dub [Лицензия]

salma3

294 | 31

3.88 ГБ


Начать новую тему Ответить на тему  [ 1 сообщение ] 




Для Мосгорсуда, Роскомнадзора и рекламодателей:: mosgorsud-torrent[собачка]yandex.ru
cron