Торрент файл
скачать торрент магнет ссылка Добавлен: 17 мар 2018, 13:12
Размер: 15.83 ГБ
Сидеров: 0
Личеров: 1
Статус: (salma3)
Автор

СообщениеДобавлено: 17 мар 2018, 13:12 

Не в сети
Супермодератор
Аватара пользователя
Дата регистрации:
15 фев 2012, 16:44
Возраст: 28
Спасибо: 7226 / 2147
Сообщения: 68215
Год выхода: 2017
Жанр: Мультфильм, фэнтези, комедия
Режиссер: Тимоти Рекарт

Роли озвучивают: Стивен Ян, Кигэн-Майкл Ки, Эйди Брайант, Джина Родригез, Закари Левай, Кристофер Пламмер, Винг Реймз, Габриэль Иглесиас, Келли Кларксон, Энтони Андерсон

О фильме:
Маленький отважный ослик по имени Бо работает на мельнице, мечтая вырваться на свободу и повидать мир. И в один прекрасный день его желание исполняется! Бо видит в небе необычайно яркую звезду и решает отправиться по пути, который она указывает. Его ждут удивительные приключения и встреча с новыми друзьями, среди которых найдется милая овечка, голубь-шутник и даже троица верблюдов. Разношерстной компании путешественников предстоит стать невольными участниками и свидетелями самого волшебного и чудесного события — Рождества.



Страна: США
Продолжительность: 01:26:06
Перевод: Профессиональный (полное дублирование) Лицензия

Файл
Качество: BDRemux 1080p
Формат: MKV
Кодек: MPEG-4 AVC
Видео: 1920x1080 (16:9), 23.976 fps, MPEG-4 AVC ~ 23.5 bps avg, 0.472 bit/pixel
Аудио #1: AC3, 48,0 kHz, 6 ch, ~640.00 kbps avg | русский | Blu-ray NOR
Аудио #2: DTS-HD MA, 48,0 kHz, 6 ch, ~2229.00 kbps avg | английский | Оригинал

Субтитры: Русские, английские

Общее
Уникальный идентификатор : 181550755858507504158851699131986247196 (0x88956759C2F96A42B3A916AEDF447E1C)
Полное имя : The.Star.2017.1080p.BluRay.REMUX.Rus.Eng.mkv
Формат : Matroska
Версия формата : Version 4 / Version 2
Размер файла : 15,8 Гбайт
Продолжительность : 1 ч. 26 м.
Режим общего битрейта : Переменный
Общий поток : 26,3 Мбит/сек
Название фильма : Путеводная звезда (2017)
Дата кодирования : UTC 2018-03-17 05:35:10
Программа кодирования : mkvmerge v9.7.1 ('Pandemonium') 64bit
Библиотека кодирования : libebml v1.3.4 + libmatroska v1.4.5

Видео
Идентификатор : 1
Формат : AVC
Формат/Информация : Advanced Video Codec
Профиль формата : High@L4.1
Настройки формата : CABAC / 2 Ref Frames
Параметр CABAC формата : Да
Параметр ReFrames формата : 2 кадра
Параметр GOP формата : M=1, N=10
Идентификатор кодека : V_MPEG4/ISO/AVC
Продолжительность : 1 ч. 26 м.
Вид битрейта : Переменный
Битрейт : 23,5 Мбит/сек
Ширина : 1920 пикселей
Высота : 1080 пикселей
Соотношение сторон : 16:9
Режим частоты кадров : Постоянный
Частота кадров : 23,976 (24000/1001) кадра/сек
Цветовое пространство : YUV
Субдискретизация насыщенности : 4:2:0
Битовая глубина : 8 бит
Тип развёртки : Прогрессивная
Бит/(Пиксели*Кадры) : 0.472
Размер потока : 14,1 Гбайт (89%)
Default : Да
Forced : Нет

Аудио #1
Идентификатор : 2
Формат : AC-3
Формат/Информация : Audio Coding 3
Идентификатор кодека : A_AC3
Продолжительность : 1 ч. 26 м.
Вид битрейта : Постоянный
Битрейт : 640 Кбит/сек
Каналы : 6 каналов
Расположение каналов : Front: L C R, Side: L R, LFE
Частота : 48,0 КГц
Частота кадров : 31,250 кадров/сек (1536 SPF)
Битовая глубина : 16 бит
Метод сжатия : С потерями
Размер потока : 394 Мбайт (2%)
Заголовок : Blu-ray NOR
Язык : Russian
Default : Да
Forced : Нет

Аудио #2
Идентификатор : 3
Формат : DTS
Формат/Информация : Digital Theater Systems
Профиль формата : MA / Core
Идентификатор кодека : A_DTS
Продолжительность : 1 ч. 26 м.
Вид битрейта : Переменный / Постоянный
Битрейт : 2229 Кбит/сек / 1509 Кбит/сек
Каналы : 6 каналов
Расположение каналов : Front: L C R, Side: L R, LFE
Частота : 48,0 КГц
Частота кадров : 93,750 кадра/сек (512 SPF)
Битовая глубина : 16 бит
Метод сжатия : Без потерь / Lossy
Размер потока : 1,34 Гбайт (8%)
Язык : English
Default : Нет
Forced : Нет

Текст #1
Идентификатор : 4
Формат : UTF-8
Идентификатор кодека : S_TEXT/UTF8
Идентификатор кодека/Информация : UTF-8 Plain Text
Продолжительность : 1 ч. 18 м.
Битрейт : 104 бит/сек
ElementCount : 1287
Размер потока : 60,0 Кбайт (0%)
Заголовок : Полные
Язык : Russian
Default : Нет
Forced : Нет

Текст #2
Идентификатор : 5
Формат : UTF-8
Идентификатор кодека : S_TEXT/UTF8
Идентификатор кодека/Информация : UTF-8 Plain Text
Продолжительность : 1 ч. 16 м.
Битрейт : 69 бит/сек
ElementCount : 1283
Размер потока : 38,9 Кбайт (0%)
Язык : English
Default : Нет
Forced : Нет

Текст #3
Идентификатор : 6
Формат : UTF-8
Идентификатор кодека : S_TEXT/UTF8
Идентификатор кодека/Информация : UTF-8 Plain Text
Продолжительность : 1 ч. 23 м.
Битрейт : 77 бит/сек
ElementCount : 1638
Размер потока : 47,5 Кбайт (0%)
Заголовок : SDH
Язык : English
Default : Нет
Forced : Нет

Меню
00:00:00.000 : en:Chapter 1
00:04:20.385 : en:Chapter 2
00:08:07.112 : en:Chapter 3
00:13:11.290 : en:Chapter 4
00:18:07.753 : en:Chapter 5
00:21:29.246 : en:Chapter 6
00:25:59.224 : en:Chapter 7
00:30:26.825 : en:Chapter 8
00:34:41.997 : en:Chapter 9
00:39:09.722 : en:Chapter 10
00:47:09.910 : en:Chapter 11
00:52:29.772 : en:Chapter 12
00:57:39.414 : en:Chapter 13
01:04:37.874 : en:Chapter 14
01:09:35.171 : en:Chapter 15
01:13:40.875 : en:Chapter 16


_________________
Проголосуй за трекер Открытый торрент трекер - RUS-MEDIA.ORG

Проголосуй Открытый торрент трекер - RUS-MEDIA.ORG


Вернуться к началу
 Профиль Отправить личное сообщение  
 
   Похожие торренты   Автор   Торрент   Размер 
В этой теме нет новых непрочитанных сообщений. Путеводная звезда / The Star [Мультфильм, фэнтези, комедия, 2017] BDRip 1080p, Dub [Лицензия]

salma3

21 | 6

7.38 ГБ

В этой теме нет новых непрочитанных сообщений. Путеводная звезда / The Star [Мультфильм, фэнтези, комедия, 2017] BDRip 720p, Dub [Лицензия]

salma3

29 | 15

4.32 ГБ

В этой теме нет новых непрочитанных сообщений. Путеводная звезда / The Star [фэнтези, комедия, приключения, 2017] BDRip, Dub [Лицензия]

salma3

0 | 0

1.37 ГБ

В этой теме нет новых непрочитанных сообщений. Лего Фильм: Бэтмен / The LEGO Batman Movie [Мультфильм, фэнтези, боевик, 2017] BDRemux 1080p, Dub [Лицензия]

salma3

77 | 17

17.96 ГБ

В этой теме нет новых непрочитанных сообщений. Фердинанд / Ferdinand [Семейный, комедия, мультфильм, 2017] BDRemux 1080p, Dub [Лицензия]

salma3

18 | 28

24.79 ГБ

В этой теме нет новых непрочитанных сообщений. Тачки 3 / Cars 3 [Мультфильм, комедия, приключения, 2017] BDRemux 1080p, Dub+Sub [Лицензия] [3D-Video]

salma3

6 | 5

26.17 ГБ

В этой теме нет новых непрочитанных сообщений. Эмоджи фильм / The Emoji Movie [Мультфильм, фантастика, комедия, 2017] BDRemux 1080p, Dub [Лицензия]

salma3

4 | 2

16.95 ГБ


Начать новую тему Ответить на тему  [ 1 сообщение ] 




Для Мосгорсуда, Роскомнадзора и рекламодателей:: mosgorsud-torrent[собачка]yandex.ru
cron