Торрент файл
скачать торрент магнет ссылка Добавлен: 16 мар 2018, 12:36
Размер: 41.4 ГБ
Сидеров: 3
Личеров: 8
Статус: (salma3)
Автор

СообщениеДобавлено: 16 мар 2018, 12:36 

Не в сети
Супермодератор
Аватара пользователя
Дата регистрации:
15 фев 2012, 16:44
Возраст: 29
Спасибо: 7331 / 2147
Сообщения: 73810
Год выпуска: 2017
Жанр: Семейный, комедия, мультфильм
Режиссер: Карлос Салдана

В ролях: Джон Сина, Кейт МакКиннон, Дэвид Теннант, Бобби Каннавейл, Энтони Андерсон, Джек Гор, Джет Юргенсмейер, Найл Диас, Колин Х. Мерфи, Карлос Салдана

О фильме:
Фердинанд — самый добродушный бык во всей Испании. Несмотря на внушительные размеры и недюжинную силу, он с детства предпочитал сидеть на лужайке и любоваться цветами вместо того, чтобы бодаться с другими быками. По нелепой случайности Фердинанд был выбран среди других соплеменников для участия в бое быков в Мадриде.



Страна: США
Продолжительность: 01:48:05
Перевод: Дублированный | Лицензия BD EUR

Файл
Контейнер: MKV
Качество: BDRemux 2160p

Видео: HEVC, 47.8 Мбит/с, 3840x2160
Аудио #1: DTS, 48.0 kHz, 6 ch, 768 kb/s, CBR (Russian)
Аудио #2: AC-3, 48.0 kHz, 6 ch, 448 kb/s, CBR (Ukrainian)
Аудио #3: DTS MA / Core, 48.0 kHz, 8 / 6 ch, 4 626 kb/s / 1 509 kb/s, VBR / CBR (English)
Аудио #4: AC-3, 48.0 kHz, 6 ch, 640 kb/s, CBR (English)
Аудио #5: AC-3, 48.0 kHz, 6 ch, 448 kb/s, CBR (English)

Релиз от: Автор релиза: Ivantsov




Общее
Уникальный идентификатор : 199264098663145909292358224738447330280 (0x95E8DE93FDC7F9EC5B76E3C462190BE8)
Полное имя : Ferdinand.2017.2160p.BDREMUX.HEVC.HDR.IVA(RUS.UKR.ENG).ExKinoRay.mkv
Формат : Matroska
Версия формата : Version 4 / Version 2
Размер файла : 41,4 Гбайт
Продолжительность : 1 ч. 48 м.
Общий поток : 54,8 Мбит/сек
Название фильма : Ferdinand.2017.2160p.BDREMUX.HEVC.HDR.IVA(RUS.UKR.ENG).ExKinoRay
Дата кодирования : UTC 2018-03-15 17:15:57
Программа кодирования : mkvmerge v21.0.0 ('Tardigrades Will Inherit The Earth') 64-bit
Библиотека кодирования : libebml v1.3.5 + libmatroska v1.4.8
Обложка : Yes

Видео
Идентификатор : 1
Формат : HEVC
Формат/Информация : High Efficiency Video Coding
Профиль формата : Main 10@L5.1@High
Идентификатор кодека : V_MPEGH/ISO/HEVC
Продолжительность : 1 ч. 48 м.
Битрейт : 47,8 Мбит/сек
Ширина : 3840 пикселей
Высота : 2160 пикселей
Соотношение сторон : 16:9
Режим частоты кадров : Постоянный
Частота кадров : 23,976 (24000/1001) кадра/сек
Цветовое пространство : YUV
Субдискретизация насыщенности : 4:2:0 (Type 2)
Битовая глубина : 10 бит
Бит/(Пиксели*Кадры) : 0.240
Размер потока : 36,1 Гбайт (87%)
Заголовок : Ferdinand.2017.2160p.BDREMUX.HEVC.HDR
Библиотека кодирования : ATEME Titan File 3.8.13 (4.8.13.0)
Язык : English
Default : Да
Forced : Нет
Цветовой диапазон : Limited
Основные цвета : BT.2020
Характеристики трансфера : PQ
Коэффициенты матрицы : BT.2020 non-constant
MasteringDisplay_ColorPrimaries : Display P3
MasteringDisplay_Luminance : min: 0.0050 cd/m2, max: 1000 cd/m2

Аудио #1
Идентификатор : 2
Формат : DTS
Формат/Информация : Digital Theater Systems
Идентификатор кодека : A_DTS
Продолжительность : 1 ч. 48 м.
Вид битрейта : Постоянный
Битрейт : 768 Кбит/сек
Каналы : 6 каналов
Расположение каналов : Front: L C R, Side: L R, LFE
Частота : 48,0 КГц
Частота кадров : 93,750 кадра/сек (512 SPF)
Битовая глубина : 24 бит
Метод сжатия : С потерями
Размер потока : 594 Мбайт (1%)
Заголовок : | Дублированный |
Язык : Russian
Default : Да
Forced : Нет

Аудио #2
Идентификатор : 3
Формат : AC-3
Формат/Информация : Audio Coding 3
Идентификатор кодека : A_AC3
Продолжительность : 1 ч. 48 м.
Вид битрейта : Постоянный
Битрейт : 448 Кбит/сек
Каналы : 6 каналов
Расположение каналов : Front: L C R, Side: L R, LFE
Частота : 48,0 КГц
Частота кадров : 31,250 кадров/сек (1536 SPF)
Битовая глубина : 16 бит
Метод сжатия : С потерями
Размер потока : 347 Мбайт (1%)
Заголовок : | Дублированный |
Язык : Ukrainian
ServiceKind : Complete Main
Default : Нет
Forced : Нет

Аудио #3
Идентификатор : 4
Формат : DTS
Формат/Информация : Digital Theater Systems
Профиль формата : MA / Core
Идентификатор кодека : A_DTS
Продолжительность : 1 ч. 48 м.
Вид битрейта : Переменный / Постоянный
Битрейт : 4626 Кбит/сек / 1509 Кбит/сек
Каналы : 8 каналов / 6 каналов
Расположение каналов : Front: L C R, Side: L R, Back: L R, LFE / Front: L C R, Side: L R, LFE
Частота : 48,0 КГц
Частота кадров : 93,750 кадра/сек (512 SPF)
Битовая глубина : 24 бит
Метод сжатия : Без потерь / Lossy
Размер потока : 3,50 Гбайт (8%)
Заголовок : | Original |
Язык : English
Default : Нет
Forced : Нет

Аудио #4
Идентификатор : 5
Формат : AC-3
Формат/Информация : Audio Coding 3
Идентификатор кодека : A_AC3
Продолжительность : 1 ч. 48 м.
Вид битрейта : Постоянный
Битрейт : 640 Кбит/сек
Каналы : 6 каналов
Расположение каналов : Front: L C R, Side: L R, LFE
Частота : 48,0 КГц
Частота кадров : 31,250 кадров/сек (1536 SPF)
Битовая глубина : 16 бит
Метод сжатия : С потерями
Задержка видео : 32 мс.
Размер потока : 495 Мбайт (1%)
Заголовок : | Original |
Язык : English
ServiceKind : Complete Main
Default : Нет
Forced : Нет

Аудио #5
Идентификатор : 6
Формат : AC-3
Формат/Информация : Audio Coding 3
Идентификатор кодека : A_AC3
Продолжительность : 1 ч. 48 м.
Вид битрейта : Постоянный
Битрейт : 448 Кбит/сек
Каналы : 6 каналов
Расположение каналов : Front: L C R, Side: L R, LFE
Частота : 48,0 КГц
Частота кадров : 31,250 кадров/сек (1536 SPF)
Битовая глубина : 16 бит
Метод сжатия : С потерями
Размер потока : 346 Мбайт (1%)
Заголовок : | Audiodeion |
Язык : English
ServiceKind : Complete Main
Default : Нет
Forced : Нет

Текст #1
Идентификатор : 7
Формат : UTF-8
Идентификатор кодека : S_TEXT/UTF8
Идентификатор кодека/Информация : UTF-8 Plain Text
Продолжительность : 1 ч. 46 м.
Битрейт : 53 бит/сек
ElementCount : 1147
Размер потока : 41,6 Кбайт (0%)
Заголовок : Full
Язык : Russian
Default : Нет
Forced : Нет

Текст #2
Идентификатор : 8
Формат : UTF-8
Идентификатор кодека : S_TEXT/UTF8
Идентификатор кодека/Информация : UTF-8 Plain Text
Продолжительность : 1 ч. 35 м.
Битрейт : 45 бит/сек
ElementCount : 1237
Размер потока : 32,1 Кбайт (0%)
Заголовок : Full
Язык : English
Default : Нет
Forced : Нет

Текст #3
Идентификатор : 9
Формат : UTF-8
Идентификатор кодека : S_TEXT/UTF8
Идентификатор кодека/Информация : UTF-8 Plain Text
Продолжительность : 1 ч. 43 м.
Битрейт : 58 бит/сек
ElementCount : 1812
Размер потока : 43,9 Кбайт (0%)
Заголовок : SDH
Язык : English
Default : Нет
Forced : Нет

Текст #4
Идентификатор : 10
Формат : PGS
Идентификатор кодека : S_HDMV/PGS
Идентификатор кодека/Информация : Picture based subtitle format used on BDs/HD-DVDs
Продолжительность : 1 ч. 46 м.
Битрейт : 24,7 Кбит/сек
ElementCount : 2310
Размер потока : 18,8 Мбайт (0%)
Заголовок : Full
Язык : Russian
Default : Нет
Forced : Нет

Текст #5
Идентификатор : 11
Формат : PGS
Идентификатор кодека : S_HDMV/PGS
Идентификатор кодека/Информация : Picture based subtitle format used on BDs/HD-DVDs
Продолжительность : 1 ч. 46 м.
Битрейт : 26,3 Кбит/сек
ElementCount : 2304
Размер потока : 20,1 Мбайт (0%)
Заголовок : Full
Язык : Ukrainian
Default : Нет
Forced : Нет

Текст #6
Идентификатор : 12
Формат : PGS
Идентификатор кодека : S_HDMV/PGS
Идентификатор кодека/Информация : Picture based subtitle format used on BDs/HD-DVDs
Продолжительность : 1 ч. 43 м.
Битрейт : 40,2 Кбит/сек
ElementCount : 3660
Размер потока : 29,6 Мбайт (0%)
Заголовок : SDH
Язык : English
Default : Нет
Forced : Нет

Меню
00:00:00.000 : en:Chapter 1
00:03:37.800 : en:Chapter 2
00:08:10.281 : en:Chapter 3
00:11:51.460 : en:Chapter 4
00:16:23.524 : en:Chapter 5
00:24:14.870 : en:Chapter 6
00:28:30.458 : en:Chapter 7
00:34:03.124 : en:Chapter 8
00:37:53.187 : en:Chapter 9
00:40:54.160 : en:Chapter 10
00:44:55.359 : en:Chapter 11
00:49:15.994 : en:Chapter 12
00:53:27.245 : en:Chapter 13
00:59:40.952 : en:Chapter 14
01:03:20.671 : en:Chapter 15
01:06:23.270 : en:Chapter 16
01:09:19.822 : en:Chapter 17
01:12:18.917 : en:Chapter 18
01:17:33.940 : en:Chapter 19
01:20:55.058 : en:Chapter 20
01:25:33.837 : en:Chapter 21
01:30:38.391 : en:Chapter 22
01:36:01.839 : en:Chapter 23
01:38:01.166 : en:Chapter 24



_________________
Проголосуй за трекер Открытый торрент трекер - RUS-MEDIA.ORG

Проголосуй Открытый торрент трекер - RUS-MEDIA.ORG


Вернуться к началу
 Профиль Отправить личное сообщение  
 
   Похожие торренты   Автор   Торрент   Размер 
В этой теме нет новых непрочитанных сообщений. Фердинанд / Ferdinand [Семейный, комедия, мультфильм, 2017] BDRip 2160p, Dub [Лицензия] [4K]

salma3

0 | 0

23.61 ГБ

В этой теме нет новых непрочитанных сообщений. Фердинанд / Ferdinand [Семейный, комедия, мультфильм, 2017] BDRemux 1080p, Dub [Лицензия]

salma3

18 | 28

24.79 ГБ

В этой теме нет новых непрочитанных сообщений. Фердинанд / Ferdinand [Семейный, комедия, мультфильм, 2017] Blu-ray CEE, Dub [Лицензия]

salma3

0 | 0

40.16 ГБ

В этой теме нет новых непрочитанных сообщений. Фердинанд / Ferdinand [Семейный, комедия, мультфильм, 2017] BDRip-AVC, Dub [Лицензия]

salma3

72 | 9

1.46 ГБ

В этой теме нет новых непрочитанных сообщений. Фердинанд / Ferdinand [Семейный, комедия, мультфильм, 2017] BDRip, Dub [Лицензия]

salma3

271 | 79

1.46 ГБ

В этой теме нет новых непрочитанных сообщений. Фердинанд / Ferdinand [Семейный, комедия, мультфильм, 2017] BDRip 720p, Dub [Лицензия]

salma3

31 | 60

6.02 ГБ

В этой теме нет новых непрочитанных сообщений. Босс-молокосос / The Boss Baby [мультфильм, комедия, семейный, 2017] UHD BDRemux 2160p, Dub [4K] [Лицензия]

salma3

15 | 9

22.17 ГБ


Начать новую тему Ответить на тему  [ 1 сообщение ] 




Для Мосгорсуда, Роскомнадзора и рекламодателей:: mosgorsud-torrent[собачка]yandex.ru
cron