Торрент файл
скачать торрент магнет ссылка Добавлен: 16 мар 2018, 12:25
Размер: 23.61 ГБ
Сидеров: 0
Личеров: 0
Статус: (salma3)
Автор

СообщениеДобавлено: 16 мар 2018, 12:25 

Не в сети
Супермодератор
Аватара пользователя
Дата регистрации:
15 фев 2012, 16:44
Возраст: 29
Спасибо: 7322 / 2147
Сообщения: 73261
Год выхода: 2017
Жанр: Семейный, комедия, мультфильм
Режиссер: Карлос Салдана

В ролях: Джон Сина, Кейт МакКиннон, Дэвид Теннант, Бобби Каннавейл, Энтони Андерсон, Джек Гор, Джет Юргенсмейер, Найл Диас, Колин Х. Мерфи, Карлос Салдана

О фильме:
Фердинанд — самый добродушный бык во всей Испании. Несмотря на внушительные размеры и недюжинную силу, он с детства предпочитал сидеть на лужайке и любоваться цветами вместо того, чтобы бодаться с другими быками. По нелепой случайности Фердинанд был выбран среди других соплеменников для участия в бое быков в Мадриде.



Страна: США
Продолжительность: 01:48:12
Перевод: Дублированный | Лицензия

Файл
Кодек: H.265
Качество: BDRip 2160p
Видео: HEVC, 25.6 Mбит/с, 3840x1608, 23.976 кадр/с
Звук:
Русский (DTS, 6 ch, 768 Кбит/с) / Дублированный
Русский (AC3, 6 ch, 448 Кбит/с) / Дублированный
Украинский (AC3, 6 ch, 448 Кбит/с) / Дублированный
Английский (DTS-HD MA, 8 ch, 3941 Кбит/с)
Субтитры: Русские, английские (Full, SDH)

Семпл

General
Unique ID : 284344737363924759694184288494667292969 (0xD5EACDEE96790EF4181974B7FE4DE129)
Complete name : D:uTorrentFerdinand.2017.BDRip.2160p.SDR.MediaClub.mkv
Format : Matroska
Format version : Version 4 / Version 2
File size : 23.6 GiB
Duration : 1 h 48 min
Overall bit rate : 31.2 Mb/s
Encoded date : UTC 2018-03-15 23:16:05
Writing application : mkvmerge v19.0.0 ('Brave Captain') 64-bit
Writing library : libebml v1.3.5 + libmatroska v1.4.8
Cover : Yes
Attachments : cover.jpg

Video
ID : 1
Format : HEVC
Format/Info : High Efficiency Video Coding
Format profile : Main 10@L5.1@High
Codec ID : V_MPEGH/ISO/HEVC
Duration : 1 h 48 min
Bit rate : 25.6 Mb/s
Width : 3 840 pixels
Height : 1 608 pixels
Display aspect ratio : 2.40:1
Frame rate mode : Constant
Frame rate : 23.976 (24000/1001) FPS
Color space : YUV
Chroma subsampling : 4:2:0
Bit depth : 10 bits
Bits/(Pixel*Frame) : 0.173
Stream size : 19.4 GiB (82%)
Title : BDRip (2160p) 4K, UHD, SDR by Silverok
Writing library : x265 2.5+4-b4a5bcfe29c7:[Windows][GCC 4.9.3][64 bit] 10bit
Encoding settings : cpuid=1173503 / frame-threads=16 / numa-pools=20 / wpp / no-pmode / no-pme / no-psnr / no-ssim / log-level=2 / input-csp=1 / input-res=3840x1608 / interlace=0 / total-frames=0 / level-idc=51 / high-tier=1 / uhd-bd=0 / ref=3 / no-allow-non-conformance / repeat-headers / annexb / aud / hrd / info / hash=0 / no-temporal-layers / no-open-gop / min-keyint=1 / keyint=24 / bframes=4 / b-adapt=2 / b-pyramid / bframe-bias=0 / rc-lookahead=25 / lookahead-slices=4 / scenecut=40 / no-intra-refresh / ctu=64 / min-cu-size=8 / no-rect / no-amp / max-tu-size=32 / tu-inter-depth=1 / tu-intra-depth=1 / limit-tu=0 / rdoq-level=0 / dynamic-rd=0.00 / no-ssim-rd / signhide / no-tskip / nr-intra=0 / nr-inter=0 / no-constrained-intra / strong-intra-smoothing / max-merge=2 / limit-refs=3 / no-limit-modes / me=1 / subme=2 / merange=57 / temporal-mvp / weightp / no-weightb / no-analyze-src-pics / deblock=0:0 / no-sao / no-sao-non-deblock / rd=3 / no-early-skip / rskip / no-fast-intra / no-tskip-fast / no-cu-lossless / no-b-intra / rdpenalty=0 / psy-rd=2.00 / psy-rdoq=0.00 / no-rd-refine / analysis-reuse-mode=0 / no-lossless / cbqpoffs=0 / crqpoffs=0 / rc=crf / crf=16.0 / qcomp=0.60 / qpstep=4 / stats-write=0 / stats-read=0 / vbv-maxrate=160000 / vbv-bufsize=160000 / vbv-init=0.9 / crf-max=0.0 / crf-min=0.0 / ipratio=1.40 / pbratio=1.30 / aq-mode=1 / aq-strength=1.00 / cutree / zone-count=0 / no-strict-cbr / qg-size=32 / no-rc-grain / qpmax=69 / qpmin=0 / no-const-vbv / sar=1 / overscan=0 / videoformat=5 / range=0 / colorprim=2 / transfer=2 / colormatrix=2 / chromaloc=0 / display-window=0 / max-cll=0,0 / min-luma=0 / max-luma=1023 / log2-max-poc-lsb=8 / vui-timing-info / vui-hrd-info / slices=1 / opt-qp-pps / opt-ref-list-length-pps / no-multi-pass-opt-rps / scenecut-bias=0.05 / no-opt-cu-delta-qp / no-aq-motion / no-hdr / no-hdr-opt / no-dhdr10-opt / analysis-reuse-level=5 / scale-factor=0 / refine-intra=0 / refine-inter=0 / refine-mv=0 / no-limit-sao / ctu-info=0
Default : Yes
Forced : No

Audio #1
ID : 2
Format : DTS
Format/Info : Digital Theater Systems
Codec ID : A_DTS
Duration : 1 h 48 min
Bit rate mode : Constant
Bit rate : 768 kb/s
Channel(s) : 6 channels
Channel positions : Front: L C R, Side: L R, LFE
Sampling rate : 48.0 kHz
Frame rate : 93.750 FPS (512 SPF)
Bit depth : 24 bits
Compression mode : Lossy
Stream size : 594 MiB (2%)
Title : Дублированный
Language : Russian
Default : Yes
Forced : No

Audio #2
ID : 3
Format : AC-3
Format/Info : Audio Coding 3
Codec ID : A_AC3
Duration : 1 h 48 min
Bit rate mode : Constant
Bit rate : 448 kb/s
Channel(s) : 6 channels
Channel positions : Front: L C R, Side: L R, LFE
Sampling rate : 48.0 kHz
Frame rate : 31.250 FPS (1536 SPF)
Bit depth : 16 bits
Compression mode : Lossy
Stream size : 347 MiB (1%)
Title : Дублированный
Language : Russian
Service kind : Complete Main
Default : No
Forced : No

Audio #3
ID : 4
Format : AC-3
Format/Info : Audio Coding 3
Codec ID : A_AC3
Duration : 1 h 48 min
Bit rate mode : Constant
Bit rate : 448 kb/s
Channel(s) : 6 channels
Channel positions : Front: L C R, Side: L R, LFE
Sampling rate : 48.0 kHz
Frame rate : 31.250 FPS (1536 SPF)
Bit depth : 16 bits
Compression mode : Lossy
Stream size : 347 MiB (1%)
Title : Дублированный
Language : Ukrainian
Service kind : Complete Main
Default : No
Forced : No

Audio #4
ID : 5
Format : DTS
Format/Info : Digital Theater Systems
Format profile : MA / Core
Codec ID : A_DTS
Duration : 1 h 48 min
Bit rate mode : Variable / Constant
Bit rate : 3 941 kb/s / 1 509 kb/s
Channel(s) : 8 channels / 6 channels
Channel positions : Front: L C R, Side: L R, Back: L R, LFE / Front: L C R, Side: L R, LFE
Sampling rate : 48.0 kHz
Frame rate : 93.750 FPS (512 SPF)
Bit depth : 24 bits
Compression mode : Lossless / Lossy
Stream size : 2.98 GiB (13%)
Language : English
Default : No
Forced : No

Text #1
ID : 6
Format : UTF-8
Codec ID : S_TEXT/UTF8
Codec ID/Info : UTF-8 Plain Text
Duration : 1 h 46 min
Bit rate : 53 b/s
Count of elements : 1147
Stream size : 41.6 KiB (0%)
Title : Full
Language : Russian
Default : Yes
Forced : No

Text #2
ID : 7
Format : UTF-8
Codec ID : S_TEXT/UTF8
Codec ID/Info : UTF-8 Plain Text
Duration : 1 h 35 min
Bit rate : 45 b/s
Count of elements : 1237
Stream size : 32.1 KiB (0%)
Title : Full
Language : English
Default : No
Forced : No

Text #3
ID : 8
Format : UTF-8
Codec ID : S_TEXT/UTF8
Codec ID/Info : UTF-8 Plain Text
Duration : 1 h 43 min
Bit rate : 58 b/s
Count of elements : 1812
Stream size : 43.9 KiB (0%)
Title : SDH
Language : English
Default : No
Forced : No

Menu
00:00:00.000 : en:00:00:00.000
00:05:20.028 : en:00:05:20.028
00:10:17.951 : en:00:10:17.951
00:13:59.589 : en:00:13:59.589
00:22:33.060 : en:00:22:33.060
00:29:23.178 : en:00:29:23.178
00:37:09.519 : en:00:37:09.519
00:41:04.587 : en:00:41:04.587
00:48:26.904 : en:00:48:26.904
00:56:16.498 : en:00:56:16.498
01:02:38.463 : en:01:02:38.463
01:10:57.003 : en:01:10:57.003
01:18:41.467 : en:01:18:41.467
01:24:05.791 : en:01:24:05.791
01:30:25.629 : en:01:30:25.629
01:35:58.753 : en:01:35:58.753
01:39:33.968 : en:01:39:33.968
01:45:20.105 : en:01:45:20.105
01:52:55.227 : en:01:52:55.227
01:59:45.011 : en:01:59:45.011


Релиз от: | Silverok


_________________
Проголосуй за трекер Открытый торрент трекер - RUS-MEDIA.ORG

Проголосуй Открытый торрент трекер - RUS-MEDIA.ORG


Вернуться к началу
 Профиль Отправить личное сообщение  
 
   Похожие торренты   Автор   Торрент   Размер 
В этой теме нет новых непрочитанных сообщений. Фердинанд / Ferdinand [Семейный, комедия, мультфильм, 2017] UHD BDRemux 2160p, Dub [Лицензия] [4K]

salma3

3 | 8

41.4 ГБ

В этой теме нет новых непрочитанных сообщений. Фердинанд / Ferdinand [Семейный, комедия, мультфильм, 2017] BDRip-AVC, Dub [Лицензия]

salma3

72 | 9

1.46 ГБ

В этой теме нет новых непрочитанных сообщений. Фердинанд / Ferdinand [Семейный, комедия, мультфильм, 2017] BDRip, Dub [Лицензия]

salma3

264 | 79

1.46 ГБ

В этой теме нет новых непрочитанных сообщений. Фердинанд / Ferdinand [Семейный, комедия, мультфильм, 2017] BDRip 720p, Dub [Лицензия]

salma3

31 | 60

6.02 ГБ

В этой теме нет новых непрочитанных сообщений. Фердинанд / Ferdinand [Семейный, комедия, мультфильм, 2017] Blu-ray CEE, Dub [Лицензия]

salma3

0 | 0

40.16 ГБ

В этой теме нет новых непрочитанных сообщений. Фердинанд / Ferdinand [Семейный, комедия, мультфильм, 2017] BDRemux 1080p, Dub [Лицензия]

salma3

18 | 28

24.79 ГБ

В этой теме нет новых непрочитанных сообщений. Босс-молокосос / The Boss Baby [мультфильм, комедия, семейный, 2017] UHD BDRemux 2160p, Dub [4K] [Лицензия]

salma3

15 | 9

22.17 ГБ


Начать новую тему Ответить на тему  [ 1 сообщение ] 




Для Мосгорсуда, Роскомнадзора и рекламодателей:: mosgorsud-torrent[собачка]yandex.ru
cron