COVID-19 - Последняя информация о коронавирусе на сайте Минздрава




Торрент файл
скачать торрент магнет ссылка Добавлен: 18 янв 2018, 11:53
Размер: 18.58 ГБ
Сидеров: 0
Личеров: 0
Статус: (salma3)
Автор

СообщениеДобавлено: 18 янв 2018, 11:53 

Не в сети
Супермодератор
Аватара пользователя
Дата регистрации:
15 фев 2012, 16:44
Возраст: 30
Спасибо: 8263 / 2148
Сообщения: 96287
Год выхода: 2017
Жанр: Мультфильм, боевик, комедия
Режиссер: Чарли Бин, Пол Фишер, Боб Логан

В ролях: Джеки Чан, Дэйв Франко, Фред Армисен, Кумэйл Нанджиани, Майкл Пенья, Эбби Джейкобсон, Зак Вудс, Дэвид Берроуз, Джастин Теру

О фильме:
Ниндзяго-сити призывает на свою защиту юного Ллойда, он же Зеленый ниндзя, и его друзей, тайных воинов и Великих мастеров ЛЕГО. Под предводительством кунг-фу мастера Ву, столь же умного, сколь и остроумного, они должны одолеть злобного диктатора Гармадона, Самого Злодейского Злодея, который оказывается отцом Ллойда. Роботы против роботов, сын против отца; эпическое столкновение проверит на прочность эту неистовую, но не самую дисциплинированную команду современных ниндзя, которые должны научиться усмирять свое самомнение, чтобы по полной проявить свои способности.



Страна: Дания, США
Продолжительность: 01:41:26
Перевод: Дублированный [Лицензия]

Файл
Качество: BDRemux 1080p
Видео: MPEG-4 AVC, 1920x1080, 21.3 Mbit/s, 23.976 fps
Звук:
Аудио #01: 48 kHz, AC3, 5.1, 448 Kbps | Дублированный | iTunes | RUS |
Аудио #02: 48 kHz, TrueHD, 7.1, 3939 Kbps | Оригинал | ENG |
Аудио #03: 48 kHz, AC3, 5.1, 448 Kbps | Оригинал | ENG |
Субтитры: Русские (forced, full), английские

General
Unique ID : 76533145174722159587844671342578090889 (0x3993BF62E93C7860A07461C877FDC389)
Complete name : G:VideoSSDThe.LEGO.Ninjago.Movie.2017.Lic.BDREMUX.1080p.ExKinoRay.mkv
Format : Matroska
Format version : Version 4 / Version 2
File size : 18.6 GiB
Duration : 1 h 41 min
Overall bit rate mode : Variable
Overall bit rate : 26.2 Mb/s
Movie name : The LEGO Ninjago Movie 2017 from ExKinoRay
Encoded date : UTC 2018-01-18 02:05:48
Writing application : mkvmerge v20.0.0 ('I Am The Sun') 64-bit
Writing library : libebml v1.3.5 + libmatroska v1.4.8

Video
ID : 1
Format : AVC
Format/Info : Advanced Video Codec
Format profile : High@L4.1
Format settings : CABAC / 4 Ref Frames
Format settings, CABAC : Yes
Format settings, ReFrames : 4 frames
Codec ID : V_MPEG4/ISO/AVC
Duration : 1 h 41 min
Bit rate mode : Variable
Bit rate : 21.3 Mb/s
Maximum bit rate : 27.0 Mb/s
Width : 1 920 pixels
Height : 1 080 pixels
Display aspect ratio : 16:9
Frame rate mode : Constant
Frame rate : 23.976 (24000/1001) FPS
Color space : YUV
Chroma subsampling : 4:2:0
Bit depth : 8 bits
Scan type : Progressive
Bits/(Pixel*Frame) : 0.429
Stream size : 15.1 GiB (81%)
Language : English
Default : Yes
Forced : No

Audio #1
ID : 2
Format : AC-3
Format/Info : Audio Coding 3
Codec ID : A_AC3
Duration : 1 h 41 min
Bit rate mode : Constant
Bit rate : 448 kb/s
Channel(s) : 6 channels
Channel positions : Front: L C R, Side: L R, LFE
Sampling rate : 48.0 kHz
Frame rate : 31.250 FPS (1536 SPF)
Bit depth : 16 bits
Compression mode : Lossy
Stream size : 325 MiB (2%)
Title : Dub [License]
Language : Russian
Service kind : Complete Main
Default : Yes
Forced : No

Audio #2
ID : 3
Format : TrueHD
Format profile : TrueHD+Atmos / TrueHD
Codec ID : A_TRUEHD
Duration : 1 h 41 min
Bit rate mode : Variable
Bit rate : 3 939 kb/s
Maximum bit rate : 5 967 kb/s
Channel(s) : Object Based / 8 channels
Channel positions : Object Based / Front: L C R, Side: L R, Back: L R, LFE
Sampling rate : / 48.0 kHz
Frame rate : 1 200.000 FPS (40 SPF)
Compression mode : Lossless
Stream size : 2.79 GiB (15%)
Title : Original
Language : English
Default : No
Forced : No

Audio #3
ID : 4
Format : AC-3
Format/Info : Audio Coding 3
Codec ID : A_AC3
Duration : 1 h 41 min
Bit rate mode : Constant
Bit rate : 448 kb/s
Channel(s) : 6 channels
Channel positions : Front: L C R, Side: L R, LFE
Sampling rate : 48.0 kHz
Frame rate : 31.250 FPS (1536 SPF)
Bit depth : 16 bits
Compression mode : Lossy
Stream size : 325 MiB (2%)
Language : English
Service kind : Complete Main
Default : No
Forced : No

Text #1
ID : 5
Format : UTF-8
Codec ID : S_TEXT/UTF8
Codec ID/Info : UTF-8 Plain Text
Duration : 1 h 37 min
Bit rate : 1 b/s
Count of elements : 21
Stream size : 774 Bytes (0%)
Title : Forced
Language : Russian
Default : Yes
Forced : No

Text #2
ID : 6
Format : UTF-8
Codec ID : S_TEXT/UTF8
Codec ID/Info : UTF-8 Plain Text
Duration : 1 h 40 min
Bit rate : 123 b/s
Count of elements : 1784
Stream size : 91.5 KiB (0%)
Title : Full
Language : Russian
Default : No
Forced : No

Text #3
ID : 7
Format : UTF-8
Codec ID : S_TEXT/UTF8
Codec ID/Info : UTF-8 Plain Text
Duration : 1 h 35 min
Bit rate : 80 b/s
Count of elements : 2043
Stream size : 55.8 KiB (0%)
Title : Full
Language : English
Default : No
Forced : No

Menu
00:00:00.000 : en:Chapter 01
00:11:44.746 : en:Chapter 02
00:23:32.453 : en:Chapter 03
00:31:09.785 : en:Chapter 04
00:40:53.368 : en:Chapter 05
00:53:48.392 : en:Chapter 06
01:03:05.532 : en:Chapter 07
01:16:07.688 : en:Chapter 08
01:25:13.608 : en:Chapter 09
01:32:10.900 : en:Chapter 10


Релиз от: Автор релиза:


_________________
Проголосуй за трекер Открытый торрент трекер - RUS-MEDIA.ORG

Проголосуй Открытый торрент трекер - RUS-MEDIA.ORG


Скачать книги и аудио книги через торрент


Вернуться к началу
 Профиль Отправить личное сообщение  
 
   Похожие торренты   Автор   Торрент   Размер 
В этой теме нет новых непрочитанных сообщений. ЛЕГО Ниндзяго Фильм / The LEGO Ninjago Movie [Мультфильм, боевик, комедия, 2017] BDRemux 1080p, Dub [Лицензия] [3D-Video]

salma3

0 | 0

25.93 ГБ

В этой теме нет новых непрочитанных сообщений. ЛЕГО Ниндзяго Фильм / The LEGO Ninjago Movie [Мультфильм, боевик, комедия, 2017] BDRip 1080p, Dub [Лицензия]

salma3

0 | 0

7.74 ГБ

В этой теме нет новых непрочитанных сообщений. ЛЕГО Ниндзяго Фильм / The LEGO Ninjago Movie [Мультфильм, боевик, комедия, 2017] BDRip 720p, Dub [Лицензия]

salma3

0 | 0

3.83 ГБ

В этой теме нет новых непрочитанных сообщений. ЛЕГО Ниндзяго Фильм / The LEGO Ninjago Movie [Мультфильм, боевик, комедия, семейный, 2017] BDRip, Dub [iTunes]

salma3

1209 | 122

1.42 ГБ

В этой теме нет новых непрочитанных сообщений. Мастер - Лего Ниндзяго / The Master - A Lego Ninjago Short [мультфильм, короткометражка, боевик, 2016] BDRip 720p, Dub

salma3

33 | 10

195.48 МБ

В этой теме нет новых непрочитанных сообщений. Лего Фильм: Бэтмен / The LEGO Batman Movie [Мультфильм, фэнтези, боевик, 2017] UHD BDRemux 2160p, Dub [4K] [Лицензия]

salma3

3 | 7

35.54 ГБ

В этой теме нет новых непрочитанных сообщений. ЛЕГО Фильм-2 / The Lego Movie 2: The Second Part [Мультфильм, мюзикл, фэнтези, 2019] BDRip 1080p, Dub [Лицензия]

salma3

0 | 0

10.27 ГБ


Начать новую тему Ответить на тему  [ 1 сообщение ] 




Для Мосгорсуда, Роскомнадзора и рекламодателей:: rstracker[собака]yandex.ru
cron