Торрент файл
скачать торрент магнет ссылка Добавлен: 08 сен 2017, 13:17
Размер: 34.61 ГБ
Сидеров: 2
Личеров: 3
Статус: (salma3)
Автор

СообщениеДобавлено: 08 сен 2017, 13:17 

В сети
Супермодератор
Аватара пользователя
Дата регистрации:
15 фев 2012, 16:44
Возраст: 28
Спасибо: 7063 / 2147
Сообщения: 59332
Год выхода: 2013
Жанр: мультфильм, фэнтези, комедия
Режиссер: Раджа Госнелл / Raja Gosnell

В ролях: Хэнк Азария, Нил Патрик Харрис, Брендан Глисон, Джейма Мейс, Джонатан Уинтерс, Кэти Перри, Кристина Риччи, Дж.Б. Смув, Джордж Лопес, Антон Ельчин, Джон Оливер, Фрэнк Уэлкер, Фред Армизен, Алан Камминг, Джейкоб Тремблэ, Нэнси О'Делл...

О фильме:
Гаргамел создаёт Хакуса и Векси, как две капли воды похожую на смурфиков злобную парочку, надеясь всё-таки обрести магическую силу. Когда он узнаёт, что лишь настоящий смурф может дать ему то, что он хочет, и лишь Смурфетта способна превратить Хакуса и Векси в настоящих смурфов, Гаргамел похищает Смурфетту и берёт её с собой в Париж, планируя сделать её своей прислужницей. Но смурфики - Папа, Растяпа, Смельчак, Ворчун, Красавчик, Благоразумник и их друзья из Нью-Йорка этого так не оставят. Тем более что к ним присоединился новорождённый Голубчик...



Страна: США
Продолжительность: 01:44:54
Перевод: дубляж

Файл
Кодек: x264
Качество: UHD BDRip 2160p
Видео: 3840x2076 (1.85:1), 23.976fps, 43.5 Mb/s, 8 bits
Звук:
Русский / Дубляж (Blu-Ray CEE), Dolby AC3 48000Hz 6ch 640kbps
Украинский / Дубляж (Blu-Ray CEE), Dolby AC3 48000Hz 6ch 640kbps
Английский / DTS 48000Hz 6ch 1536kbps
Субтитры: русские forced, русские, украинские forced, английские (все субтитры softsub (SRT))

Семпл

Авторы рипа SWEATY BALLZ (SWTYBLZ). Оригинальное название их файла The.Smurfs.2.2013.2160p.BluRay.x264.8bit.SDR.DTS-HD.MA.TrueHD.7.1.Atmos-SWTYBLZ

Цитата: Converted from 10 bit HDR to 8 bit SDR using tripple mixed Hable-Reinhard-JJ per scene+frame analysis algorithm

Как утверждается, это рип с Ultra HD Blu-Ray. Не верить причин нет. 10-битное видео с HDR конвертировали в 8-битное без HDR. И кодек x264. Проще говоря, цвета здесь нормальные яркие без всяких манипуляций с madVR, например. Да и вообще, на слабых компьютерах процессор поменьше грузит. Кому нужны цвета HDR, тому искать ремукс или другие рипы. А это - вроде как эконом-рип, если так вообще можно сказать про видео 2160p.

Звуковые дорожки и субтитры полным комплектом позаимствованы из релиза ULTRAHDCLUB.
General
Unique ID : 237148377607115270128236671891777571856 (0xB2691DBD4B225210AA9CD5130F78CC10)
Complete name : F:FilmsUHDThe.Smurfs.2.2013.2160p.BluRay.x264.8bit.SDR.Rus.mkv
Format : Matroska
Format version : Version 4 / Version 2
File size : 34.6 GiB
Duration : 1 h 44 min
Overall bit rate : 47.2 Mb/s
Encoded date : UTC 2017-09-08 05:28:03
Writing application : mkvmerge v15.0.0 ('Duel with the Devil') 64-bit
Writing library : libebml v1.3.5 + libmatroska v1.4.5

Video
ID : 1
Format : AVC
Format/Info : Advanced Video Codec
Format profile : High@L5.1
Format settings, CABAC : Yes
Format settings, RefFrames : 5 frames
Codec ID : V_MPEG4/ISO/AVC
Duration : 1 h 44 min
Bit rate : 43.5 Mb/s
Width : 3 840 pixels
Height : 2 076 pixels
Display aspect ratio : 1.85:1
Frame rate mode : Constant
Frame rate : 23.976 (24000/1001) FPS
Color space : YUV
Chroma subsampling : 4:2:0
Bit depth : 8 bits
Scan type : Progressive
Bits/(Pixel*Frame) : 0.228
Stream size : 31.9 GiB (92%)
Title : The.Smurfs.2.2013.2160p.BluRay.x264.8bit.SDR.DTS-HD.MA.TrueHD.7.1.Atmos-SWTYBLZ
Writing library : x264 core 148 r2748 97eaef2
Encoding settings : cabac=1 / ref=5 / deblock=1:-1:-1 / analyse=0x3:0x113 / me=umh / subme=10 / psy=1 / psy_rd=1.00:0.15 / mixed_ref=1 / me_range=48 / chroma_me=1 / trellis=2 / 8x8dct=1 / cqm=0 / deadzone=21,11 / fast_pskip=1 / chroma_qp_offset=-3 / threads=65 / lookahead_threads=5 / sliced_threads=0 / nr=0 / decimate=0 / interlaced=0 / bluray_compat=0 / constrained_intra=0 / bframes=3 / b_pyramid=2 / b_adapt=2 / b_bias=0 / direct=3 / weightb=1 / open_gop=0 / weightp=2 / keyint=250 / keyint_min=23 / scenecut=40 / intra_refresh=0 / rc_lookahead=50 / rc=crf / mbtree=1 / crf=18.0 / qcomp=0.60 / qpmin=0 / qpmax=69 / qpstep=4 / ip_ratio=1.40 / aq=1:1.00
Language : English
Default : Yes
Forced : No

Audio #1
ID : 2
Format : AC-3
Format/Info : Audio Coding 3
Format settings, Endianness : Big
Codec ID : A_AC3
Duration : 1 h 44 min
Bit rate mode : Constant
Bit rate : 640 kb/s
Channel(s) : 6 channels
Channel positions : Front: L C R, Side: L R, LFE
Sampling rate : 48.0 kHz
Frame rate : 31.250 FPS (1536 SPF)
Bit depth : 16 bits
Compression mode : Lossy
Stream size : 480 MiB (1%)
Title : AC3 5.1 @ 640 kbps - DUB, Blu-ray CEE
Language : Russian
Service kind : Complete Main
Default : Yes
Forced : No

Audio #2
ID : 3
Format : AC-3
Format/Info : Audio Coding 3
Format settings, Endianness : Big
Codec ID : A_AC3
Duration : 1 h 44 min
Bit rate mode : Constant
Bit rate : 640 kb/s
Channel(s) : 6 channels
Channel positions : Front: L C R, Side: L R, LFE
Sampling rate : 48.0 kHz
Frame rate : 31.250 FPS (1536 SPF)
Bit depth : 16 bits
Compression mode : Lossy
Stream size : 480 MiB (1%)
Title : AC3 5.1 @ 640 kbps - DUB, Blu-ray CEE
Language : Ukrainian
Service kind : Complete Main
Default : No
Forced : No

Audio #3
ID : 4
Format : DTS
Format/Info : Digital Theater Systems
Mode : 16
Format settings, Endianness : Big
Codec ID : A_DTS
Duration : 1 h 44 min
Bit rate mode : Constant
Bit rate : 1 509 kb/s
Channel(s) : 6 channels
Channel positions : Front: L C R, Side: L R, LFE
Sampling rate : 48.0 kHz
Frame rate : 93.750 FPS (512 SPF)
Bit depth : 16 bits
Compression mode : Lossy
Stream size : 1.11 GiB (3%)
Title : DTS 5.1 @ 1536 kbps
Language : English
Default : No
Forced : No

Text #1
ID : 5
Format : UTF-8
Codec ID : S_TEXT/UTF8
Codec ID/Info : UTF-8 Plain Text
Title : Forced. Blu-ray CEE
Language : Russian
Default : No
Forced : Yes

Text #2
ID : 6
Format : UTF-8
Codec ID : S_TEXT/UTF8
Codec ID/Info : UTF-8 Plain Text
Title : Blu-ray CEE
Language : Russian
Default : No
Forced : No

Text #3
ID : 7
Format : UTF-8
Codec ID : S_TEXT/UTF8
Codec ID/Info : UTF-8 Plain Text
Title : Forced, Blu-ray CEE
Language : Ukrainian
Default : No
Forced : No

Text #4
ID : 8
Format : UTF-8
Codec ID : S_TEXT/UTF8
Codec ID/Info : UTF-8 Plain Text
Language : English
Default : No
Forced : No

Menu
00:00:00.000 : en:Chapter 01
00:05:00.133 : en:Chapter 02
00:11:12.755 : en:Chapter 03
00:18:14.093 : en:Chapter 04
00:23:18.522 : en:Chapter 05
00:27:54.590 : en:Chapter 06
00:34:25.480 : en:Chapter 07
00:41:09.342 : en:Chapter 08
00:46:10.434 : en:Chapter 09
00:50:59.098 : en:Chapter 10
00:56:47.863 : en:Chapter 11
01:02:33.875 : en:Chapter 12
01:07:06.773 : en:Chapter 13
01:14:10.196 : en:Chapter 14
01:21:05.819 : en:Chapter 15
01:28:24.591 : en:Chapter 16


_________________
Проголосуй за трекер Открытый торрент трекер - RUS-MEDIA.ORG

Проголосуй Открытый торрент трекер - RUS-MEDIA.ORG


Вернуться к началу
 Профиль Отправить личное сообщение  
 
   Похожие торренты   Автор   Торрент   Размер 
В этой теме нет новых непрочитанных сообщений. Смурфики / The Smurfs [Мультфильм, фэнтези, семейный, 2011] UHD BDRemux 2160p, Dub [Лицензия]

salma3

0 | 0

51.11 ГБ

В этой теме нет новых непрочитанных сообщений. Смурфики: Затерянная деревня / Smurfs: The Lost Village [Мультфильм, фэнтези, комедия, 2017] BDRip, Dub [Лицензия]

salma3

613 | 54

1.46 ГБ

В этой теме нет новых непрочитанных сообщений. Смурфики: Затерянная деревня / Smurfs: The Lost Village [Мультфильм, фэнтези, комедия, 2017] BDRip 720p, Dub [Лицензия]

salma3

68 | 15

6.18 ГБ

В этой теме нет новых непрочитанных сообщений. Смурфики: Затерянная деревня / Smurfs: The Lost Village [Мультфильм, фэнтези, комедия, 2017] BDRip 1080p, Dub [3D-Video] [iTunes]

salma3

85 | 48

7.26 ГБ

В этой теме нет новых непрочитанных сообщений. Смурфики: Затерянная деревня / Smurfs: The Lost Village [мультфильм, фэнтези, комедия, 2017] TS, Dub

salma3

3253 | 303

1.37 ГБ

В этой теме нет новых непрочитанных сообщений. Смурфики: Затерянная деревня / Smurfs: The Lost Village [мультфильм, фэнтези, комедия, 2017] Blu-Ray CEE 1080p, Dub [Лицензия]

salma3

6 | 22

32.78 ГБ

В этой теме нет новых непрочитанных сообщений. Смурфы / Smurfs [S01-09] [фэнтези, семейный, мультфильм, 1981-1990] SATRip, Mvo

salma3

60 | 45

84.8 ГБ


Начать новую тему Ответить на тему  [ 1 сообщение ] 




Для Мосгорсуда, Роскомнадзора и рекламодателей:: mosgorsud-torrent[собачка]yandex.ru
cron