Торрент файл
скачать торрент магнет ссылка Добавлен: 15 июл 2017, 12:31
Размер: 18.43 ГБ
Сидеров: 0
Личеров: 20
Статус: (salma3)
Автор

СообщениеДобавлено: 15 июл 2017, 12:31 

Не в сети
Супермодератор
Аватара пользователя
Дата регистрации:
15 фев 2012, 16:44
Возраст: 28
Спасибо: 6487 / 2129
Сообщения: 41182
Год выхода: 1996
Жанр: мультфильм, мюзикл, фэнтези
Режиссер: Тэд Стоунс

В ролях: Вэл Бэттин, Джим Каммингс, Гилберт Готтфрид, Линда Ларкин, Джерри Орбак, Джон Рис-Дэвис, Скотт Венгер, Фрэнк Уэлкер, Робин Уильямс, Джефф Беннетт

О фильме:
Все жители Аграбы дружно готовятся к величайшему празднику — вот-вот состоится долгожданная свадьба Аладдина и принцессы Жасмин! Но сначала нашему герою придется остановить легендарную шайку сорока разбойников — ведь они хотят похитить свадебный подарок — всевидящего Оракула, с помощью которого злодеи хотят отыскать и прибрать к своим рукам все сокровища мира. Аладдину и его неразлучным друзьям — Жасмин, Абу, Коврику и весельчаку Джинну придется пережить немало приключений и найти выход из самых безвыходных ситуаций в погоне за Королем Разбойников и его удалой безжалостной шайкой.



Страна: США
Продолжительность: 01:21:32
Перевод: Дублированный

Файл
Кодек: H.264
Качество: BDRemux 1080p
Видео: 1920x1080, 23.976 fps, MPEG-4 AVC, ~3675 kbps
Аудио #1: Английский / DTS-HD Master Audio / 48 KHz / 5.1 ch / 2297 kbps (Original)
Аудио #2: Русский / AC3 / 48 KHz / 5.1 ch / 640 Kbps (Дубляж - BD CEE)

General
Unique ID : 220900716699888376278244795593660524472 (0xA62FEE3570007F4595127CA9544F67B8)
Complete name : C:Новая папкаАладдин и король разбойников (Aladdin and the King of Thieves).mkv
Format : Matroska
Format version : Version 4 / Version 2
File size : 18.4 GiB
Duration : 1 h 21 min
Overall bit rate mode : Variable
Overall bit rate : 32.3 Mb/s
Encoded date : UTC 2017-07-11 13:51:34
Writing application : mkvmerge v8.3.0 ('Over the Horizon') 64bit
Writing library : libebml v1.3.1 + libmatroska v1.4.2
Video
ID : 1
Format : AVC
Format/Info : Advanced Video Codec
Format profile : High@L4.1
Format settings, CABAC : Yes
Format settings, ReFrames : 4 frames
Codec ID : V_MPEG4/ISO/AVC
Duration : 1 h 21 min
Bit rate mode : Variable
Bit rate : 29.4 Mb/s
Maximum bit rate : 32.0 Mb/s
Width : 1 920 pixels
Height : 1 080 pixels
Display aspect ratio : 16:9
Frame rate mode : Constant
Frame rate : 23.976 (24000/1001) FPS
Color space : YUV
Chroma subsampling : 4:2:0
Bit depth : 8 bits
Scan type : Progressive
Bits/(Pixel*Frame) : 0.592
Stream size : 16.8 GiB (91%)
Default : Yes
Forced : No
Audio #1
ID : 2
Format : DTS
Format/Info : Digital Theater Systems
Format profile : MA / Core
Mode : 16
Format settings, Endianness : Big
Codec ID : A_DTS
Duration : 1 h 21 min
Bit rate mode : Variable / Constant
Bit rate : 2 292 kb/s / 1 509 kb/s
Channel(s) : 6 channels
Channel positions : Front: L C R, Side: L R, LFE
Sampling rate : 48.0 kHz
Frame rate : 93.750 FPS (512 spf)
Bit depth : 16 bits
Compression mode : Lossless / Lossy
Stream size : 1.31 GiB (7%)
Title : Английская
Language : English
Default : Yes
Forced : No
Audio #2
ID : 3
Format : AC-3
Format/Info : Audio Coding 3
Mode extension : CM (complete main)
Format settings, Endianness : Big
Codec ID : A_AC3
Duration : 1 h 21 min
Bit rate mode : Constant
Bit rate : 640 kb/s
Channel(s) : 6 channels
Channel positions : Front: L C R, Side: L R, LFE
Sampling rate : 48.0 kHz
Frame rate : 31.250 FPS (1536 spf)
Bit depth : 16 bits
Compression mode : Lossy
Stream size : 374 MiB (2%)
Title : Русская
Language : Russian
Default : No
Forced : No


_________________
Проголосуй за трекер Открытый торрент трекер - RUS-MEDIA.ORG

Проголосуй Открытый торрент трекер - RUS-MEDIA.ORG



реклама партнёра


Вернуться к началу
 Профиль Отправить личное сообщение  
 
   Похожие торренты   Автор   Торрент   Размер 
В этой теме нет новых непрочитанных сообщений. Аладдин и король разбойников / Aladdin and the King of Thieves [мультфильм, комедия, приключения, 1996] BDRip 720p, Dub

salma3

0 | 164

2.58 ГБ

В этой теме нет новых непрочитанных сообщений. Аладдин и король разбойников / Aladdin and the king of thieves [Полнометражный мультфильм, комедия, 1995] DVDRip, Dub [КПК]

salma3

52 | 4

269.81 МБ

В этой теме нет новых непрочитанных сообщений. Аладдин / Aladdin [мультфильм, мюзикл, 1992] BDRip, Dub [КПК]

salma3

174 | 6

311.47 МБ

В этой теме нет новых непрочитанных сообщений. Тролли / Trolls (Мультфильм, мюзикл, фэнтези, комедия, приключения, семейный, 2016) BDRemux 1080p от ExKinoRay | iTunes

marya111

55 | 38

20.33 ГБ

В этой теме нет новых непрочитанных сообщений. Король приключений / Adventure King [Боевик, приключения, 1996] DVDRip, Mvo

salma3

45 | 4

746.59 МБ

В этой теме нет новых непрочитанных сообщений. Семья Джетсонов / Jetsons: The Movie [мультфильм, мюзикл, фантастика, комедия, семейный, 1990] BDRemux 1080p, Mvo

salma3

14 | 8

13.09 ГБ

В этой теме нет новых непрочитанных сообщений. Красавица и чудовище / Beauty and the Beast [Мюзикл, фэнтези, мелодрама, 2017] BDRemux 1080p, Dub [Лицензия]

salma3

0 | 197

26.95 ГБ


Начать новую тему Ответить на тему  [ 1 сообщение ] 




Для Мосгорсуда, Роскомнадзора и рекламодателей:: mosgorsud-torrent[собачка]yandex.ru