Торрент файл
скачать торрент магнет ссылка Добавлен: 14 июл 2017, 11:37
Размер: 11.95 ГБ
Сидеров: 0
Личеров: 0
Статус: (salma3)
Автор

СообщениеДобавлено: 14 июл 2017, 11:37 

Не в сети
Супермодератор
Аватара пользователя
Дата регистрации:
15 фев 2012, 16:44
Возраст: 30
Спасибо: 8128 / 2147
Сообщения: 94452
Год выхода: 1988-1991
Жанр: мультфильм, фэнтези, комедия
Режиссер: Карл Джеерс, Теренс Харрисон, Кен Кессел

В ролях: Джон Фидлер, Джим Каммингс, Кен Сэнсом, Пол Уинчелл, Майкл Гоф, Питер Каллен, Хэл Смит, Тим Хоскинс, Патриция Паррис, Николас Мелоди

О фильме:
Кто такой Винни Пух, знают все. Этот мультфильм производства компании Уолта Диснея основан на оригинальных иллюстрациях четырехтомного собрания о Винни Пухе Эрнеста Шепарда. Познакомьтесь с Винни Пухом, каким его видят англоязычные ценители и который, конечно, отличается от русской версии Бориса Заходера.



Страна: США
Продолжительность: ~00:22:00 серия
Перевод: Дублированный [Кинокомпаня «Невафильм»]

Файл
Кодек: AVC / AAC
Качество: WEBRip-AVC
Видео: 782x568, 25.000 fps, x264, ~1400Kbps, 0.127bits/pixel
Звук: 48.0 KHz, AAC, 2 ch, ~140 Kbps

General
Complete name : The.New.Adventures.of.Winnie.the.Pooh.S01E01.WEB-DL.AAC2.0.H.264-CasStudio.mp4
Format : MPEG-4
Format profile : Base Media
Codec ID : isom (isom/iso2/avc1/mp41)
File size : 242 MiB
Duration : 21 min 43 s
Overall bit rate : 1 556 kb/s
Writing application : Lavf55.33.100
Video
ID : 1
Format : AVC
Format/Info : Advanced Video Codec
Format profile : Main@L3
Format settings, CABAC : Yes
Format settings, ReFrames : 3 frames
Codec ID : avc1
Codec ID/Info : Advanced Video Coding
Duration : 21 min 43 s
Bit rate : 1 414 kb/s
Width : 782 pixels
Height : 568 pixels
Display aspect ratio : 1.377
Frame rate mode : Constant
Frame rate : 25.000 FPS
Color space : YUV
Chroma subsampling : 4:2:0
Bit depth : 8 bits
Scan type : Progressive
Bits/(Pixel*Frame) : 0.127
Stream size : 219 MiB (91%)
Writing library : x264 core 142
Encoding settings : cabac=1 / ref=3 / deblock=1:0:0 / analyse=0x1:0x111 / me=hex / subme=7 / psy=1 / psy_rd=1.00:0.00 / mixed_ref=1 / me_range=16 / chroma_me=1 / trellis=1 / 8x8dct=0 / cqm=0 / deadzone=21,11 / fast_pskip=1 / chroma_qp_offset=-2 / threads=48 / lookahead_threads=4 / sliced_threads=0 / nr=0 / decimate=1 / interlaced=0 / bluray_compat=0 / constrained_intra=0 / bframes=5 / b_pyramid=0 / b_adapt=1 / b_bias=0 / direct=1 / weightb=1 / open_gop=0 / weightp=2 / keyint=200 / keyint_min=20 / scenecut=0 / intra_refresh=0 / rc_lookahead=40 / rc=2pass / mbtree=1 / bitrate=1414 / ratetol=1.0 / qcomp=0.60 / qpmin=0 / qpmax=69 / qpstep=4 / cplxblur=20.0 / qblur=0.5 / vbv_maxrate=2121 / vbv_bufsize=5657 / nal_hrd=none / filler=0 / ip_ratio=1.40 / aq=1:1.00
Tagged date : UTC 2015-12-21 18:56:30
Audio
ID : 2
Format : AAC
Format/Info : Advanced Audio Codec
Format profile : LC
Codec ID : 40
Duration : 21 min 43 s
Duration_LastFrame : 43 ms
Bit rate mode : Constant
Bit rate : 140 kb/s
Channel(s) : 2 channels
Channel positions : Front: L R
Sampling rate : 48.0 kHz
Frame rate : 46.875 FPS (1024 spf)
Compression mode : Lossy
Stream size : 21.7 MiB (9%)
Default : Yes
Alternate group : 1
Tagged date : UTC 2015-12-21 18:56:30


_________________
Проголосуй за трекер Открытый торрент трекер - RUS-MEDIA.ORG

Проголосуй Открытый торрент трекер - RUS-MEDIA.ORG


Скачать книги и аудио книги через торрент


Вернуться к началу
 Профиль Отправить личное сообщение  
 
   Похожие торренты   Автор   Торрент   Размер 
В этой теме нет новых непрочитанных сообщений. Новые приключения Винни Пуха / The New Adventures of Winnie the Pooh [S01-04] [мультфильм, фэнтези, комедия, 1988-1991] WEB-DLRip, Dub

salma3

2 | 5

16.75 ГБ

В этой теме нет новых непрочитанных сообщений. Русалочка / The Little Mermaid [S01-03] [мультфильм, фэнтези, семейный, 1992-1994] WEBRip-AVC, Dub

salma3

26 | 11

9.01 ГБ

В этой теме нет новых непрочитанных сообщений. Леденящие душу приключения Сабрины / Chilling Adventures of Sabrina [S01] [ужасы, фэнтези, триллер, 2018] WEBRip 1080p, Dvo [LevshaFilm]

salma3

0 | 0

17.81 ГБ

В этой теме нет новых непрочитанных сообщений. Леденящие душу приключения Сабрины / Chilling Adventures of Sabrina [S01] [ужасы, фэнтези, триллер, 2018] WEBRip-HEVC 2160p, Mvo [LostFilm] [4K]

salma3

0 | 0

82.1 ГБ

В этой теме нет новых непрочитанных сообщений. Охотники на троллей / Trollhunters [01x01] (мультфильм, фэнтези, комедия, приключения, 2016) WEBRip-AVC | L1

marya111

358 | 12

152.39 МБ

В этой теме нет новых непрочитанных сообщений. Осторожно: Грамп! / Here Comes the Grump [Мультфильм, комедия, приключения, 2018] WEBRip-AVC, Dub

salma3

0 | 0

1.55 ГБ

В этой теме нет новых непрочитанных сообщений. Приключения Синдбада / The Adventures of Sinbad [S01-02] [фэнтези, боевик, приключения, 1996-1998] DVDRip, Mvo

salma3

3 | 1

28.76 ГБ


Начать новую тему Ответить на тему  [ 1 сообщение ] 




Для Мосгорсуда, Роскомнадзора и рекламодателей:: mosgorsud-torrent[собачка]yandex.ru
cron