Торрент файл
скачать торрент магнет ссылка Добавлен: 04 июл 2017, 11:57
Размер: 1.62 ГБ
Сидеров: 0
Личеров: 0
Автор

СообщениеДобавлено: 04 июл 2017, 11:57 

В сети
Супермодератор
Аватара пользователя
Дата регистрации:
15 фев 2012, 16:44
Возраст: 28
Спасибо: 7290 / 2147
Сообщения: 70478
Год выхода: 1998
Жанр: Мультфильм, комедия, приключения, семейный
Режиссер: Эрик Дарнелл, Тим Джонсон

В ролях: Вуди Аллен, Шэрон Стоун, Сильвестр Сталлоне, Дженнифер Лопес, Джин Хэкмен, Энн Бэнкрофт, Кристофер Уокен, Дэн Эйкройд, Дэнни Гловер

О фильме:
Большой муравейник поделен на две части: там живут муравьи-рабочие и муравьи-солдаты. Рабочие трудятся с утра до ночи, а солдаты воюют с термитами под командованием властного и завистливого генерала Мэндибала. Так было всегда. И никому, кроме муравья Антца, работающего на строительстве туннеля, не приходит в голову, что все может быть по-другому. Однажды в бар на танцы тайно приходит принцесса Бала и там знакомится с Антцом. Он влюбляется в красавицу с первого взгляда. Чтобы еще хоть раз увидеть ее, Антц меняется местами с приятелем-солдатом Вивером и отправляется на военный парад не ведая, что ждет его впереди.



Страна: США
Продолжительность: 01:19:32
Перевод: Дублированный, Профессиональный многоголосый закадровый, Авторский одноголосый

Файл
Формат: MKV
Видео: 1022x576 at 25.000 fps, High@L4.1, ~1780 kbps
Аудио#1: Russian: 48 kHz, AC3, 2/0 (L,R) ch, ~192.00 kbps avg |Дубляж, AB Video / ОРТ/ СТС|
Аудио#2: Russian: 48 kHz, AC3, 3/2 (L,C,R,l,r) + LFE ch, ~448.00 kbps avg |Многоголосый закадровый, R5|
Аудио#3: Russian: 48 kHz, AC3, 3/2 (L,C,R,l,r) + LFE ch, ~448.00 kbps avg |Одноголосый закадровый, Кашкин|
Субтитры: Russian (Full), English (SDH)
General
Unique ID : 61194861840681190622389836143731103614 (0x2E09B3A1B44890DFB927D87BFC6B577E)
Complete name : F:Муравей Антц.(1998).WEBRIP-AVC.[-=DoMiNo=-].mkv
Format : Matroska
Format version : Version 4 / Version 2
File size : 1.62 GiB
Duration : 1 h 19 min
Overall bit rate : 2 926 kb/s
Movie name : Муравей Антц
Deion : Большой муравейник поделен на две части: там живут муравьи-рабочие и муравьи-солдаты. Рабочие трудятся с утра до ночи, а солдаты воюют с термитами под командованием властного и завистливого генерала Мэндибала. Так было всегда. И никому, кроме муравья Антца, работающего на строительстве туннеля, не приходит в голову, что все может быть по-другому. Однажды в бар на танцы тайно приходит принцесса Бала и там знакомится с Антцом. Он влюбляется в красавицу с первого взгляда. Чтобы еще хоть раз увидеть ее, Антц меняется местами с приятелем-солдатом Вивером и отправляется на военный парад не ведая, что ждет его впереди.
Writing application : XviD4PSP 7.0.392 DAILY
Writing library : Lavf57.71.100
ErrorDetectionType : Per level 1
Attachments : poster.jpg
ACTORS : Вуди Аллен, Дэн Эйкройд, Энн Бэнкрофт, Джейн Куртин, Дэнни Гловер, Джин Хэкмен, Дженнифер Лопез, Джон Махони, Пол Мазурски, Грант Шод, Сильвестр Сталлоне, Шэрон Стоун, Кристофер Уокен, Джим Каммингс, Эйприл Уинчелл, Джерри Срока, Эрик Дарнелл, Гэри Шварц, Марти Сикскиллер
COMPOSER : Гарри Грегсон-Уильямс, Джон Пауэлл
COUNTRY : США
DATE : 1998
DIRECTOR : Эрик Дарнелл, Тим Джонсон
ENCODING_INFO : MATROSKA,WEBM > MKV Произвольный / H264 > X264 CRF 19.3 Произвольный / AC3 > COPY Безопасное / AC3 > COPY Безопасное / AC3 > COPY Безопасное
GENRE : мультфильм, комедия, приключения, семейный
HD_VIDEO : 1
IMDB_RATING : 6.60
ITUNEXTC : mpaa|PG|200|
Language : und
MEDIA_TYPE : 9
ORIGINAL_TITLE : Antz
PRODUCER : Брэд Льюис, Арон Уорнер, Пэтти Вутон, Пенни Финкелман Кокс, Сандра Рэбинс, Карл Розендаль
RATING : 6.875
WRITER : Тодд Элкотт, Крис Вайц, Пол Вайц
Video
ID : 1
Format : AVC
Format/Info : Advanced Video Codec
Format profile : High@L4.1
Format settings, CABAC : Yes
Format settings, ReFrames : 10 frames
Codec ID : V_MPEG4/ISO/AVC
Duration : 1 h 19 min
Bit rate : 1 780 kb/s
Width : 1 022 pixels
Height : 576 pixels
Display aspect ratio : 16:9
Frame rate mode : Constant
Frame rate : 25.000 FPS
Color space : YUV
Chroma subsampling : 4:2:0
Bit depth : 8 bits
Scan type : Progressive
Bits/(Pixel*Frame) : 0.121
Stream size : 1 012 MiB (61%)
Title : RIP_BY_-=DoMiNo=-
Writing library : x264 core 152 r2851M ba24899
Encoding settings : cabac=1 / ref=10 / deblock=1:-3:-3 / analyse=0x3:0x133 / me=umh / subme=11 / psy=1 / psy_rd=1.00:0.10 / mixed_ref=1 / me_range=48 / chroma_me=1 / trellis=2 / 8x8dct=1 / cqm=0 / deadzone=21,11 / fast_pskip=0 / chroma_qp_offset=-3 / threads=6 / lookahead_threads=1 / sliced_threads=0 / nr=0 / decimate=1 / interlaced=0 / bluray_compat=0 / constrained_intra=0 / bframes=12 / b_pyramid=2 / b_adapt=2 / b_bias=0 / direct=3 / weightb=1 / open_gop=0 / weightp=2 / keyint=250 / keyint_min=25 / scenecut=40 / intra_refresh=0 / rc=crf / mbtree=0 / crf=19.3 / qcomp=0.60 / qpmin=0 / qpmax=69 / qpstep=4 / ip_ratio=1.40 / pb_ratio=1.30 / aq=1:1.00
Language : English
Default : Yes
Forced : Yes
Color range : Limited
Color primaries : BT.709
Transfer characteristics : BT.709
Matrix coefficients : BT.709
DURATION : 01:19:30.400000000
Audio #1
ID : 2
Format : AC-3
Format/Info : Audio Coding 3
Format settings, Endianness : Big
Codec ID : A_AC3
Duration : 1 h 19 min
Bit rate mode : Constant
Bit rate : 192 kb/s
Channel(s) : 2 channels
Channel positions : Front: L R
Sampling rate : 48.0 kHz
Frame rate : 31.250 FPS (1536 spf)
Bit depth : 16 bits
Compression mode : Lossy
Stream size : 109 MiB (7%)
Title : AC3 2.0 @ 192 kbps - DUB, СТС
Language : Russian
Service kind : Complete Main
Default : Yes
Forced : Yes
DURATION : 01:19:30.432000000
Audio #2
ID : 3
Format : AC-3
Format/Info : Audio Coding 3
Format settings, Endianness : Big
Codec ID : A_AC3
Duration : 1 h 19 min
Bit rate mode : Constant
Bit rate : 448 kb/s
Channel(s) : 6 channels
Channel positions : Front: L C R, Side: L R, LFE
Sampling rate : 48.0 kHz
Frame rate : 31.250 FPS (1536 spf)
Bit depth : 16 bits
Compression mode : Lossy
Stream size : 255 MiB (15%)
Title : AC3 5.1 @ 448 kbps - MVO, R5
Language : Russian
Service kind : Complete Main
Default : Yes
Forced : No
DURATION : 01:19:30.432000000
Audio #3
ID : 4
Format : AC-3
Format/Info : Audio Coding 3
Format settings, Endianness : Big
Codec ID : A_AC3
Duration : 1 h 19 min
Bit rate mode : Constant
Bit rate : 448 kb/s
Channel(s) : 6 channels
Channel positions : Front: L C R, Side: L R, LFE
Sampling rate : 48.0 kHz
Frame rate : 31.250 FPS (1536 spf)
Bit depth : 16 bits
Compression mode : Lossy
Stream size : 255 MiB (15%)
Title : AC3 5.1 @ 448 kbps - AVO, Кашкин
Language : Russian
Service kind : Complete Main
Default : No
Forced : No
DURATION : 01:19:30.432000000
Text #1
ID : 5
Format : UTF-8
Codec ID : S_TEXT/UTF8
Codec ID/Info : UTF-8 Plain Text
Title : Full
Language : Russian
Default : Yes
Forced : No
DURATION : 01:14:34.846000000
Text #2
ID : 6
Format : UTF-8
Codec ID : S_TEXT/UTF8
Codec ID/Info : UTF-8 Plain Text
Title : SDH
Language : English
Default : No
Forced : No
DURATION : 01:16:32.316000000
Menu
00:00:00.000 : :Глава 1
00:04:41.153 : :Глава 2
00:10:12.770 : :Глава 3
00:16:34.851 : :Глава 4
00:22:42.514 : :Глава 5
00:29:19.012 : :Глава 6
00:35:41.093 : :Глава 7
00:42:03.174 : :Глава 8
00:48:32.464 : :Глава 9
00:54:25.708 : :Глава 10
01:02:14.297 : :Глава 11
01:07:24.287 : :Глава 12
01:13:39.159 : :Глава 13


_________________
Проголосуй за трекер Открытый торрент трекер - RUS-MEDIA.ORG

Проголосуй Открытый торрент трекер - RUS-MEDIA.ORG


Вернуться к началу
 Профиль Отправить личное сообщение  
 
   Похожие торренты   Автор   Торрент   Размер 
В этой теме нет новых непрочитанных сообщений. Муравей Антц / Antz [Мультфильм, комедия, приключения, семейный, 1998] WEBRip, Dub

salma3

0 | 1

1.45 ГБ

В этой теме нет новых непрочитанных сообщений. Муравей Антц / Antz [Мультфильм, комедия, приключения, семейный, 1998] WEBRip 1080p, Dub

salma3

0 | 0

6.45 ГБ

В этой теме нет новых непрочитанных сообщений. Принц Египта / The Prince of Egypt [мультфильм, приключения, семейный, история, 1998] WEBRip 1080p, 2Dub+Mvo+2Dvo+2Avo

salma3

57 | 6

7.4 ГБ

В этой теме нет новых непрочитанных сообщений. Приключения Флика / A Bug's Life [Мультфильм, комедия, приключения, семейный, 1998] BDRip 720p, Dub [60 fps]

salma3

6 | 2

5.6 ГБ

В этой теме нет новых непрочитанных сообщений. Человек-муравей / Ant-Man (Пейтон Рид) [фантастика, боевик, комедия, приключения, 2015] WEBRip, dub [Чистый звук]

Dracon

В этой теме нет новых непрочитанных сообщений. Поли / Paulie [драма, комедия, приключения, семейный, 1998] WEBRip 1080p, Dub+Mvo+Sub

salma3

16 | 43

8.06 ГБ

В этой теме нет новых непрочитанных сообщений. Человек-муравей / Ant-Man (Пейтон Рид) [фантастика, боевик, комедия, приключения, 2015] WEBRip 1080p, dub [Чистый звук]

Dracon

428 | 7

9.2 ГБ


Начать новую тему Ответить на тему  [ 1 сообщение ] 




Для Мосгорсуда, Роскомнадзора и рекламодателей:: mosgorsud-torrent[собачка]yandex.ru
cron