Торрент файл
скачать торрент магнет ссылка Добавлен: 26 июн 2017, 11:21
Размер: 4.37 ГБ
Сидеров: 16
Личеров: 14
Статус: (salma3)
Автор

СообщениеДобавлено: 26 июн 2017, 11:21 

Не в сети
Супермодератор
Аватара пользователя
Дата регистрации:
15 фев 2012, 16:44
Возраст: 28
Спасибо: 6920 / 2147
Сообщения: 52783
Год выхода: 2010
Жанр: мультфильм, комедия, приключения
Режиссер: Коуди Камерон

В ролях: Дэна Снайдер, Мэттью В. Тейлор, Кирк Бейли, Дана Белбен, Джефф Беннетт, Кьяра Браво, Коуди Камерон, Карли Скотт Коллинз, Ника Футтерман, Криспин Гловер

О фильме: Продолжение сумасшедших приключений медведя-гризли Буга и его верного друга, оленя Элиота. На этот раз Буг пускается на поиски личного счастья и попадает… в бродячий цирк, где знакомится с очаровательной русской медведицей.



Выпущено: Sony Pictures Animation
Продолжительность: 01:14:36
Перевод: Дублированный

Файл
Кодек: x264
Качество: BDRip 1080p
Видео: 1920x1080 (16:9), 23.976 fps, 7112 kbps
Аудио #1: 48 kHz, AC-3, 6 ch, 640 kbps (Rus)
Аудио #2: 48 kHz, AC-3, 6 ch, 640 kbps (Eng)
Субтитры: Русские (форс), Английские
Скачать: сэмпл

Общее
Уникальный идентификатор : 211023843954493267340345491262402509286 (0x9EC1B6C90AE4444C8C939580DF30B9E6)
Полное имя : Open.Season.3.2010.BDRip.1080p.Rus.Eng.mkv
Формат : Matroska
Версия формата : Version 2
Размер файла : 4,37 Гбайт
Продолжительность : 1 ч. 14 м.
Общий поток : 8393 Кбит/сек
Дата кодирования : UTC 2011-11-08 16:39:25
Программа кодирования : mkvmerge v4.0.0 ('The Stars were mine') сборка от Jun 6 2010 16:18:42
Библиотека кодирования : libebml v1.0.0 + libmatroska v1.0.0

Видео
Идентификатор : 1
Формат : AVC
Формат/Информация : Advanced Video Codec
Профиль формата : High@L4.1
Параметр CABAC формата : Да
Параметр ReFrames формата : 4 кадра
Идентификатор кодека : V_MPEG4/ISO/AVC
Продолжительность : 1 ч. 14 м.
Битрейт : 7112 Кбит/сек
Ширина : 1920 пикселей
Высота : 1080 пикселей
Соотношение сторон : 16:9
Частота кадров : 23,976 кадра/сек
Цветовое пространство : YUV
Субдискретизация насыщенности : 4:2:0
Битовая глубина : 8 бит
Тип развёртки : Прогрессивная
Бит/(Пиксели*Кадры) : 0.143
Размер потока : 3,62 Гбайт (83%)
Библиотека кодирования : x264 core 119 r2106 07efeb4
Настройки программы : cabac=1 / ref=4 / deblock=1:0:0 / analyse=0x3:0x133 / me=umh / subme=10 / psy=1 / psy_rd=1.00:0.00 / mixed_ref=1 / me_range=32 / chroma_me=1 / trellis=2 / 8x8dct=1 / cqm=0 / deadzone=21,11 / fast_pskip=0 / chroma_qp_offset=-2 / threads=12 / sliced_threads=0 / nr=0 / decimate=1 / interlaced=0 / bluray_compat=0 / constrained_intra=0 / bframes=3 / b_pyramid=2 / b_adapt=2 / b_bias=0 / direct=3 / weightb=1 / open_gop=0 / weightp=2 / keyint=240 / keyint_min=24 / scenecut=40 / intra_refresh=0 / rc_lookahead=60 / rc=2pass / mbtree=1 / bitrate=7112 / ratetol=1.0 / qcomp=0.60 / qpmin=0 / qpmax=69 / qpstep=4 / cplxblur=20.0 / qblur=0.5 / ip_ratio=1.40 / aq=1:1.00
Язык : English

Аудио #1
Идентификатор : 2
Формат : AC-3
Формат/Информация : Audio Coding 3
Расширение режима : CM (complete main)
Идентификатор кодека : A_AC3
Продолжительность : 1 ч. 14 м.
Вид битрейта : Постоянный
Битрейт : 640 Кбит/сек
Каналы : 6 каналов
Расположение каналов : Front: L C R, Side: L R, LFE
Частота : 48,0 КГц
Битовая глубина : 16 бит
Метод сжатия : С потерями
Размер потока : 341 Мбайт (8%)
Язык : Russian

Аудио #2
Идентификатор : 3
Формат : AC-3
Формат/Информация : Audio Coding 3
Расширение режима : CM (complete main)
Идентификатор кодека : A_AC3
Продолжительность : 1 ч. 14 м.
Вид битрейта : Постоянный
Битрейт : 640 Кбит/сек
Каналы : 6 каналов
Расположение каналов : Front: L C R, Side: L R, LFE
Частота : 48,0 КГц
Битовая глубина : 16 бит
Метод сжатия : С потерями
Размер потока : 341 Мбайт (8%)
Язык : English

Текст #1
Идентификатор : 4
Формат : UTF-8
Идентификатор кодека : S_TEXT/UTF8
Идентификатор кодека/Информация : UTF-8 Plain Text
Язык : Russian

Текст #2
Идентификатор : 5
Формат : UTF-8
Идентификатор кодека : S_TEXT/UTF8
Идентификатор кодека/Информация : UTF-8 Plain Text
Язык : English

Меню
00:00:00.000 : :Chapter 01
00:05:06.389 : :Chapter 02
00:08:07.653 : :Chapter 03
00:10:57.156 : :Chapter 04
00:17:48.067 : :Chapter 05
00:20:53.001 : :Chapter 06
00:23:23.735 : :Chapter 07
00:27:21.014 : :Chapter 08
00:34:31.861 : :Chapter 09
00:40:38.435 : :Chapter 10
00:45:48.662 : :Chapter 11
00:49:44.856 : :Chapter 12
00:54:03.865 : :Chapter 13
00:58:03.313 : :Chapter 14
01:03:22.799 : :Chapter 15
01:07:24.457 : :Chapter 16


_________________
Проголосуй за трекер Открытый торрент трекер - RUS-MEDIA.ORG

Проголосуй Открытый торрент трекер - RUS-MEDIA.ORG



реклама партнёра


Вернуться к началу
 Профиль Отправить личное сообщение  
 
   Похожие торренты   Автор   Торрент   Размер 
В этой теме нет новых непрочитанных сообщений. Сезон охоты / Open Season [мультфильм, комедия, приключения, 2006] BDRip 1080p, Dub

salma3

26 | 17

4.37 ГБ

В этой теме нет новых непрочитанных сообщений. Сезон охоты 2 / Open Season 2 [мультфильм, комедия, приключения, 2008] BDRip 1080p, Dub

salma3

18 | 14

4.37 ГБ

В этой теме нет новых непрочитанных сообщений. Сезон охоты: Байки из леса / Open Season: Scared Silly [мультфильм, комедия, приключения, семейный, 2016] Blu-ray 1080p, 2Dub

salma3

19 | 7

22.04 ГБ

В этой теме нет новых непрочитанных сообщений. Сезон охоты 4: Страшно глупо / Open Season: Scared Silly [мультфильм, 2015] BDRip 1080p, Mvo [чистый звук]

salma3

99 | 7

4.6 ГБ

В этой теме нет новых непрочитанных сообщений. Сезон охоты: Байки из леса / Open Season: Scared Silly [мультфильм, комедия, приключения, семейный, 2015] HDRip, Dub

salma3

499 | 11

1.37 ГБ

В этой теме нет новых непрочитанных сообщений. Сезон охоты 4: Страшно глупо / Open Season: Scared Silly [2015, Мультфильм, BDRip]

marya111

115 | 5

1.42 ГБ

В этой теме нет новых непрочитанных сообщений. Сезон охоты 4: Страшно глупо / Open Season: Scared Silly [2015, Мультфильм, BDRip (720p)]

marya111

5 | 0

4.44 ГБ


Начать новую тему Ответить на тему  [ 1 сообщение ] 




Для Мосгорсуда, Роскомнадзора и рекламодателей:: mosgorsud-torrent[собачка]yandex.ru
cron