Торрент файл
скачать торрент магнет ссылка Добавлен: 26 июн 2017, 11:18
Размер: 4.37 ГБ
Сидеров: 18
Личеров: 14
Статус: (salma3)
Автор

СообщениеДобавлено: 26 июн 2017, 11:18 

Не в сети
Супермодератор
Аватара пользователя
Дата регистрации:
15 фев 2012, 16:44
Возраст: 28
Спасибо: 6474 / 2129
Сообщения: 40978
Год выхода: 2008
Жанр: мультфильм, комедия, приключения
Режиссер: Мэттью О’Каллаган, Тодд Вилдерман

В ролях: Джоэль МакХэйл, Майк Еппс, Джейн Краковски, Билли Коннолли, Криспин Гловер, Стив Ширрипа, Джорджия Энджел, Дидрих Бадер, Коуди Камерон, Фред Столлер

О фильме: Буга и Элиота ждут новые безумные приключения! Элиот без памяти влюбился в Жизель, но ему приходится сойти с дороги, ведущей к алтарю, когда Мистера Уини похищают избалованные домашние животные, которые намерены вернуть его хозяевам. Буг, Элиот, Макскизи, Бадди и другие обитатели леса разворачивают полномасштабную спасательную операцию ради своего похожего на сосиску друга, и вскоре оказываются в лагере врага: в мире домашних питомцев. Домашние неженки под предводительством карликового пуделя Фифи не собираются отдавать Мистера Уини без боя.



Выпущено: Sony Pictures Animation
Продолжительность: 01:16:25
Перевод: Дублированный

Файл
Кодек: x264
Качество: BDRip (источник: Blu-ray Disc)
Видео: 1920x1080 (16:9), 23.976 fps, 6914 kbps
Аудио #1: 48 kHz, AC-3, 6 ch, 640 kbps (Rus)
Аудио #2: 48 kHz, AC-3, 6 ch, 640 kbps (Eng)
Субтитры: Русские (форс), Английские
Скачать: сэмпл

Общее
Уникальный идентификатор : 242033212266154230836571507716918658537 (0xB615E6AEBFCE6D9C9D3FCF5525A4C5E9)
Полное имя : Open.Season.2.2008.BDRip.1080p.Rus.Eng.mkv
Формат : Matroska
Версия формата : Version 2
Размер файла : 4,37 Гбайт
Продолжительность : 1 ч. 16 м.
Общий поток : 8196 Кбит/сек
Дата кодирования : UTC 2011-11-08 16:15:12
Программа кодирования : mkvmerge v4.0.0 ('The Stars were mine') сборка от Jun 6 2010 16:18:42
Библиотека кодирования : libebml v1.0.0 + libmatroska v1.0.0

Видео
Идентификатор : 1
Формат : AVC
Формат/Информация : Advanced Video Codec
Профиль формата : High@L4.1
Параметр CABAC формата : Да
Параметр ReFrames формата : 4 кадра
Идентификатор кодека : V_MPEG4/ISO/AVC
Продолжительность : 1 ч. 16 м.
Битрейт : 6914 Кбит/сек
Ширина : 1920 пикселей
Высота : 1080 пикселей
Соотношение сторон : 16:9
Частота кадров : 23,976 кадра/сек
Цветовое пространство : YUV
Субдискретизация насыщенности : 4:2:0
Битовая глубина : 8 бит
Тип развёртки : Прогрессивная
Бит/(Пиксели*Кадры) : 0.139
Размер потока : 3,60 Гбайт (82%)
Библиотека кодирования : x264 core 119 r2106 07efeb4
Настройки программы : cabac=1 / ref=4 / deblock=1:0:0 / analyse=0x3:0x133 / me=umh / subme=10 / psy=1 / psy_rd=1.00:0.00 / mixed_ref=1 / me_range=32 / chroma_me=1 / trellis=2 / 8x8dct=1 / cqm=0 / deadzone=21,11 / fast_pskip=0 / chroma_qp_offset=-2 / threads=12 / sliced_threads=0 / nr=0 / decimate=1 / interlaced=0 / bluray_compat=0 / constrained_intra=0 / bframes=3 / b_pyramid=2 / b_adapt=2 / b_bias=0 / direct=3 / weightb=1 / open_gop=0 / weightp=2 / keyint=240 / keyint_min=24 / scenecut=40 / intra_refresh=0 / rc_lookahead=60 / rc=2pass / mbtree=1 / bitrate=6914 / ratetol=1.0 / qcomp=0.60 / qpmin=0 / qpmax=69 / qpstep=4 / cplxblur=20.0 / qblur=0.5 / ip_ratio=1.40 / aq=1:1.00
Язык : English

Аудио #1
Идентификатор : 2
Формат : AC-3
Формат/Информация : Audio Coding 3
Расширение режима : CM (complete main)
Идентификатор кодека : A_AC3
Продолжительность : 1 ч. 16 м.
Вид битрейта : Постоянный
Битрейт : 640 Кбит/сек
Каналы : 6 каналов
Расположение каналов : Front: L C R, Side: L R, LFE
Частота : 48,0 КГц
Битовая глубина : 16 бит
Метод сжатия : С потерями
Размер потока : 350 Мбайт (8%)
Язык : Russian

Аудио #2
Идентификатор : 3
Формат : AC-3
Формат/Информация : Audio Coding 3
Расширение режима : CM (complete main)
Идентификатор кодека : A_AC3
Продолжительность : 1 ч. 16 м.
Вид битрейта : Постоянный
Битрейт : 640 Кбит/сек
Каналы : 6 каналов
Расположение каналов : Front: L C R, Side: L R, LFE
Частота : 48,0 КГц
Битовая глубина : 16 бит
Метод сжатия : С потерями
Размер потока : 350 Мбайт (8%)
Язык : English

Текст #1
Идентификатор : 4
Формат : UTF-8
Идентификатор кодека : S_TEXT/UTF8
Идентификатор кодека/Информация : UTF-8 Plain Text
Язык : Russian

Текст #2
Идентификатор : 5
Формат : UTF-8
Идентификатор кодека : S_TEXT/UTF8
Идентификатор кодека/Информация : UTF-8 Plain Text
Язык : English

Меню
00:00:00.000 : :Chapter 01
00:03:29.334 : :Chapter 02
00:06:40.149 : :Chapter 03
00:10:21.120 : :Chapter 04
00:13:47.034 : :Chapter 05
00:16:26.026 : :Chapter 06
00:20:19.176 : :Chapter 07
00:25:42.082 : :Chapter 08
00:33:25.753 : :Chapter 09
00:38:46.532 : :Chapter 10
00:44:33.879 : :Chapter 11
00:47:18.836 : :Chapter 12
00:51:55.070 : :Chapter 13
00:56:25.799 : :Chapter 14
00:59:50.461 : :Chapter 15
01:05:15.036 : :Chapter 16


_________________
Проголосуй за трекер Открытый торрент трекер - RUS-MEDIA.ORG

Проголосуй Открытый торрент трекер - RUS-MEDIA.ORG



реклама партнёра


Вернуться к началу
 Профиль Отправить личное сообщение  
 
   Похожие торренты   Автор   Торрент   Размер 
В этой теме нет новых непрочитанных сообщений. Сезон охоты 3 / Open Season 3 [мультфильм, комедия, приключения, 2010] BDRip 1080p, Dub

salma3

16 | 14

4.37 ГБ

В этой теме нет новых непрочитанных сообщений. Сезон охоты / Open Season [мультфильм, комедия, приключения, 2006] BDRip 1080p, Dub

salma3

26 | 17

4.37 ГБ

В этой теме нет новых непрочитанных сообщений. Сезон охоты: Байки из леса / Open Season: Scared Silly [мультфильм, комедия, приключения, семейный, 2016] Blu-ray 1080p, 2Dub

salma3

19 | 7

22.04 ГБ

В этой теме нет новых непрочитанных сообщений. Сезон охоты 4: Страшно глупо / Open Season: Scared Silly [мультфильм, 2015] BDRip 1080p, Mvo [чистый звук]

salma3

99 | 7

4.6 ГБ

В этой теме нет новых непрочитанных сообщений. Сезон охоты: Байки из леса / Open Season: Scared Silly [мультфильм, комедия, приключения, семейный, 2015] HDRip, Dub

salma3

415 | 11

1.37 ГБ

В этой теме нет новых непрочитанных сообщений. Сезон охоты 4: Страшно глупо / Open Season: Scared Silly [2015, Мультфильм, BDRip]

marya111

115 | 5

1.42 ГБ

В этой теме нет новых непрочитанных сообщений. Сезон охоты 4: Страшно глупо / Open Season: Scared Silly [2015, Мультфильм, BDRip (720p)]

marya111

5 | 0

4.44 ГБ


Начать новую тему Ответить на тему  [ 1 сообщение ] 




Для Мосгорсуда, Роскомнадзора и рекламодателей:: mosgorsud-torrent[собачка]yandex.ru