Торрент файл
скачать торрент магнет ссылка Добавлен: 26 июн 2017, 11:08
Размер: 742.83 МБ
Сидеров: 11
Личеров: 9
Статус: (salma3)
Автор

СообщениеДобавлено: 26 июн 2017, 11:08 

Не в сети
Супермодератор
Аватара пользователя
Дата регистрации:
15 фев 2012, 16:44
Возраст: 30
Спасибо: 8112 / 2147
Сообщения: 93395
Год выхода: 1968
Жанр: Мультфильм, приключения
Режиссер: Рене Госинни, Альбер Юдерзо / René Goscinny, Albert Uderzo

О фильме: Египетская царица Клеопатра была не только очень красива, но и столь же строптива. Ее страшно возмутили слова Цезаря, что египтяне навсегда останутся рабами, поскольку они — народ ленивый и глупый. Царица решила утереть нос обнаглевшему императору. А помогут ей в этом друид Починикс с друзьями Астериксом и Обеликсом. Однажды они уже победили римские легионы. Что ждет их в Египте???



Страна: Франция, Бельгия
Продолжительность: 01:12:20
Перевод: Профессиональный (многоголосый, закадровый)

Файл
Формат: avi
Качество: HDRip (BDRip.1080p)
Видео: XviD, 640x464, 23.976fps, 1298kbps
Аудио: MPEG Layer 3, 2ch, 48000Hz, 128kbps



Общее
Полное имя : Asteriks.2.1968.P.HDRip.700.CurHaJI.avi
Формат : AVI
Формат/Информация : Audio Video Interleave
Размер файла : 743 Мбайт
Продолжительность : 1 ч. 12 м.
Общий поток : 1436 Кбит/сек
Название фильма : Asteriks.2.1968.P.HDRip.700.CurHaJI
Программа кодирования : VirtualDubMod 1.5.10.3 | www.virtualdub-fr.org || (build 2550/release)
Библиотека кодирования : VirtualDub build 35491/release
Видео
Идентификатор : 0
Формат : MPEG-4 Visual
Профиль формата : Advanced Simple@L5
Параметр BVOP формата : 1
Параметр QPel формата : Нет
Параметр GMC формата : Без точки перехода
Параметр матрицы формата : Выборочная
Идентификатор кодека : XVID
Идентификатор кодека/Подсказка : XviD
Продолжительность : 1 ч. 12 м.
Битрейт : 1298 Кбит/сек
Ширина : 640 пикселей
Высота : 464 пикселя
Соотношение сторон : 1,379
Частота кадров : 23,976 (24000/1001) кадра/сек
Частота кадров в оригинале : 23,976 (23976/1000) кадра/сек
Цветовое пространство : YUV
Субдискретизация насыщенности : 4:2:0
Битовая глубина : 8 бит
Тип развёртки : Прогрессивная
Метод сжатия : С потерями
Бит/(Пиксели*Кадры) : 0.182
Размер потока : 672 Мбайт (90%)
Библиотека кодирования : XviD 73
Аудио
Идентификатор : 1
Формат : MPEG Audio
Версия формата : Version 1
Профиль формата : Layer 3
Идентификатор кодека : 55
Идентификатор кодека/Подсказка : MP3
Продолжительность : 1 ч. 12 м.
Вид битрейта : Постоянный
Битрейт : 128 Кбит/сек
Каналы : 2 канала
Частота : 48,0 КГц
Метод сжатия : С потерями
Размер потока : 66,2 Мбайт (9%)
Выравнивание : Соединение по промежуткам
Продолжительность промежутка : 42 мс. (1,00 видеокадр)
Время предзагрузки промежутка : 504 мс.
Библиотека кодирования : LAME3.99r
Настройки программы : -m s -V 4 -q 2 -lowpass 17 -b 128


Релиз от:


_________________
Проголосуй за трекер Открытый торрент трекер - RUS-MEDIA.ORG

Проголосуй Открытый торрент трекер - RUS-MEDIA.ORG


Книжный торрент трекер



Вернуться к началу
 Профиль Отправить личное сообщение  
 
   Похожие торренты   Автор   Торрент   Размер 
В этой теме нет новых непрочитанных сообщений. Астерикс и тайное зелье / Astérix: Le secret de la potion magique [Мультфильм, фэнтези, 2018] HDRip, Dub [iTunes]

salma3

1133 | 30

1.46 ГБ

В этой теме нет новых непрочитанных сообщений. Астерикс и тайное зелье / Asterix: Le secret de la potion magique [Мультфильм, фэнтези, приключения, 2018] BDRip 1080p, Dub [iTunes]

salma3

0 | 1

7.22 ГБ

В этой теме нет новых непрочитанных сообщений. Астерикс и тайное зелье / Asterix: Le secret de la potion magique [Мультфильм, фэнтези, приключения, 2018] BDRemux 1080p, Dub [iTunes] [3D-Video]

salma3

3 | 1

21.7 ГБ

В этой теме нет новых непрочитанных сообщений. Астерикс из Галлии / Astérix le Gaulois [мультфильм, боевик, комедия, 1967] BDRip 1080p, Mvo

salma3

23 | 3

4.76 ГБ

В этой теме нет новых непрочитанных сообщений. Астерикс и Обеликс: Миссия Клеопатра / Astеrix & Obеlix: Mission Clеopаtre [фэнтези, комедия, приключения, семейный, 2001] BDRip, Dub

salma3

33 | 20

2.18 ГБ

В этой теме нет новых непрочитанных сообщений. Астерикс на олимпийских играх / Asterix aux jeux olympiques [Комедия, приключения, семейный, 2008] BDRip 720p, Dub

NTL

2 | 0

4.36 ГБ

В этой теме нет новых непрочитанных сообщений. Астерикс и Обеликс против Цезаря / Asterix et Obelix contre Cesar [фэнтези, комедия, приключения, семейный, 1999] BDRip, Dub+Sub

salma3

40 | 16

2.18 ГБ


Начать новую тему Ответить на тему  [ 1 сообщение ] 




Для Мосгорсуда, Роскомнадзора и рекламодателей:: mosgorsud-torrent[собачка]yandex.ru
cron