Торрент файл
скачать торрент магнет ссылка Добавлен: 11 апр 2011, 16:12
Размер: 4.02 ГБ
Сидеров: 11
Личеров: 9
Автор

СообщениеДобавлено: 11 апр 2011, 16:12 

Не в сети
Супермодератор
Аватара пользователя
Дата регистрации:
22 май 2010, 11:03
Возраст: 31
Спасибо: 7509 / 13
Сообщения: 49940
Волшебный огонь / Olentzero y el tronco mágico



Перевод: Профессиональный (многоголосый, закадровый)
Субтитры: Отсутствуют
Формат: DVD5, DVD Video, MPEG2, AC3
Страна: Испания
Режиссер: Хуанхо Элорди
Жанр: Мультфильм
Продолжительность: 01:17:35
Год выпуска: 2005
Сценарий: Unai Iturriaga

Описание: Удивительная история о приключениях девочки Марии, ее лучшего друга Анджи и угольщика Оленцеро, который на самом деле не кто иной, как сам Санта-Клаус! Друзьям нужно срочно спасти родной лес от злобного скряги-миллионера и вернуть волшебное полено, без которого Рождество никогда не наступит.

Рейтинг на IMDB: 6.0/10
Рейтинг на Кинопоиск.RU: 7.00

Видео: 720 x 576 (1.333) at 25.000 fps, MPEG-2 Video at 6461 Кбит/сек
Аудио #0: Русский: 48,0 КГц, AC-3 at 192 Кбит/сек, Front: L R
Аудио #1: Испанский: 48,0 КГц, AC-3 at 192 Кбит/сек, Front: L R

Доп. информация: Бюджет €1 300 000


Видео
Идентификатор: 224 (0xE0)
Формат: MPEG Video
Версия формата: Version 2
Профиль формата: Main@Main
Параметр BVOP формата: Да
Параметр матрицы формата: По умолчанию
Параметры GOP формата: M=3, N=12
Продолжительность: 20 м.
Вид битрейта: Переменный
Битрейт: 6461 Кбит/сек
Номинальный битрейт: 7700 Кбит/сек
Ширина: 720 пикс.
Высота: 576 пикс.
Соотношение сторон: 4:3
Частота кадров: 25,000 кадр/сек
Стандарт вещания: PAL
Цветовое пространство: YUV
Подвыборка цветности: 4:2:0
Битовая глубина: 8 бит
Тип развёртки: Чересстрочная
Порядок развёртки: Верхнее поле первое
Метод сжатия: С потерями
Бит/(Пиксели*Кадры): 0.623
Размер потока: 947 Мбайт (93%)

Аудио #1
Идентификатор: 128 (0x80)
Формат: AC-3
Формат/Информация: Audio Coding 3
Расширение режима: CM (complete main)
Продолжительность: 20 м.
Вид битрейта: Постоянный
Битрейт: 192 Кбит/сек
Канал(ы): 2 канала(ов)
Расположение каналов: Front: L R
Частота: 48,0 КГц
Битовая глубина: 16 бит
Метод сжатия: С потерями
Задержка видео: -320 мс.
Размер потока: 28,1 Мбайт (3%)

Аудио #2
Идентификатор: 129 (0x81)
Формат: AC-3
Формат/Информация: Audio Coding 3
Расширение режима: ME (music and effects)
Продолжительность: 20 м.
Вид битрейта: Постоянный
Битрейт: 192 Кбит/сек
Канал(ы): 2 канала(ов)
Расположение каналов: Front: L R
Частота: 48,0 КГц
Битовая глубина: 16 бит
Метод сжатия: С потерями
Задержка видео: -320 мс.
Размер потока: 28,1 Мбайт (3%)









реклама партнёра


Вернуться к началу
 Профиль Отправить личное сообщение  
 
   Похожие торренты   Автор   Торрент   Размер 
В этой теме нет новых непрочитанных сообщений. Самолеты: Огонь и вода / Planes: Fire and RescueСамолеты: Огонь и вода / Planes: Fire and Rescue [мультфильм, комедия, приключения, семейный, 2014] HDRip, Dub [iTunes]

Dracon

67 | 3

1.37 ГБ

В этой теме нет новых непрочитанных сообщений. Самолеты: Огонь и вода / Planes: Fire and Rescue Самолеты: Огонь и вода / Planes: Fire and Rescue [мультфильм, комедия, приключения, семейный, 2014] BDRip 720p, Dub [iTunes]

Dracon

4 | 2

4.79 ГБ

В этой теме нет новых непрочитанных сообщений. Самолеты: Огонь и вода / Planes: Fire and Rescue Самолеты: Огонь и вода / Planes: Fire and Rescue [мультфильм, комедия, приключения, семейный, 2014] Blu-ray 1080p, Dub+Sub

Dracon

15 | 5

29.47 ГБ

В этой теме нет новых непрочитанных сообщений. Волшебный Пудинг / The Magic Pudding [мультфильм, семейный, приключения, 2000] DVDRip, Mvo

salma3

6 | 1

1.45 ГБ

В этой теме нет новых непрочитанных сообщений. Волшебный футбол / Metegol [мультфильм, приключения, семейный, спорт, 2013] HDRip [AlexFilm]

Dracon

11 | 3

1.37 ГБ

В этой теме нет новых непрочитанных сообщений. Игорь Ивановский - Волшебный праздник / TV [2005, 2012, Dance, Experimental, Techno Metal, MP3]

PriZraK

0 | 3

91.59 МБ

В этой теме нет новых непрочитанных сообщений. Волшебный футбол / Metegol [мультфильм, приключения, семейный, спорт, 2013] BDRip 720p, Mvo+Sub [AlexFilm]

Dracon

15 | 2

6.67 ГБ


Начать новую тему Ответить на тему  [ 1 сообщение ] 




Для Мосгорсуда, Роскомнадзора и рекламодателей:: mosgorsud-torrent[собачка]yandex.ru