Торрент файл
скачать торрент магнет ссылка Добавлен: 11 апр 2011, 16:11
Размер: 7.03 ГБ
Сидеров: 28
Личеров: 12
Автор

СообщениеДобавлено: 11 апр 2011, 16:11 

Не в сети
Супермодератор
Аватара пользователя
Дата регистрации:
22 май 2010, 11:03
Возраст: 31
Спасибо: 7508 / 13
Сообщения: 49940
Подводная братва / Shark Tale



Перевод:Профессиональный(полное дублирование)
Субтитры:Русские, английские, польские
Формат: DVD9, DVD Video, MPEG2, AC3
Страна:США
Режиссер:Бибо Бержерон, Вики Дженсон, Роб Леттерман
Жанр:Комедия, семейный, мультфильм
Продолжительность:01:25:50
Год выпуска:2004

В ролях:Уилл Смит, Роберт Де Ниро, Рене Зеллвегер, Джек Блэк, Анджелина Джоли, Мартин Скорсезе, Зигги Марли, Даг Э. Даг, Майкл Империоли, Винсент Пасторе

Описание: Весь подводный мир встревожен убийством главы главной преступной группировки акул и, надо же, на месте преступления находят ничего не подозревающего малька Оскара! Всю жизнь Оскар мечтал быть сильным и знаменитым, и вот ему представился прекрасный случай воспользоваться чужой славой. Но очень скоро Оскар понимает, что он натворил, взяв титул «Гроза Акул»…

Рейтинг Кинопоиск.RU: 7.020
Рейтинг IMDB: 5.9/10
Рейтинг MPAA: PG

Видео:720x576 (PAL 16:9), MPEG-2 Video, 25,000 fps, ~9800 kbps avg
Аудио#1:Русский: 48 kHz, AC3, 3/2 (L,C,R,l,r) + LFE ch ch,~384 kbps avg [Профессиональный (полное дублирование)]
Аудио#2:Английский: 48 kHz, AC3, 3/2 (L,C,R,l,r) + LFE ch, ~448 kbps avg [Оригинал]
Аудио#3:Польский: 48 kHz, AC3, 3/2 (L,C,R,l,r) + LFE ch,~384 kbps avg
Аудио#4:Английский: 48 kHz, AC3, 2 ch, ~192 kbps avg [Комментарии создателей фильма]

Слоган:«Мальки ответят за базар...»

Общее
Полное имя: L:\Мульты в DVD\Podvodnaya_Bratva\VIDEO_TS\VTS_23_1.VOB
Формат: MPEG-PS
Размер файла: 1024 Мбайт
Продолжительность: 21 м.
Общий поток: 6813 Кбит/сек

Видео
Идентификатор: 224 (0xE0)
Формат: MPEG Video
Версия формата: Version 2
Профиль формата: Main@Main
Параметр BVOP формата: Да
Параметр матрицы формата: По умолчанию
Продолжительность: 21 м.
Вид битрейта: Переменный
Битрейт: 5269 Кбит/сек
Номинальный битрейт: 9800 Кбит/сек
Ширина: 720 пикс.
Высота: 576 пикс.
Соотношение сторон: 16:9
Частота кадров: 25,000 кадр/сек
Стандарт вещания: PAL
Цветовое пространство: YUV
Подвыборка цветности: 4:2:0
Битовая глубина: 8 бит
Тип развёртки: Прогрессивная
Порядок развёртки: Верхнее поле первое
Метод сжатия: С потерями
Бит/(Пиксели*Кадры): 0.508
Размер потока: 792 Мбайт (77%)

Аудио #1
Идентификатор: 128 (0x80)
Формат: AC-3
Формат/Информация: Audio Coding 3
Расширение режима: CM (complete main)
Продолжительность: 21 м.
Вид битрейта: Постоянный
Битрейт: 448 Кбит/сек
Канал(ы): 6 канала(ов)
Расположение каналов: Front: L C R, Side: L R, LFE
Частота: 48,0 КГц
Битовая глубина: 16 бит
Метод сжатия: С потерями
Задержка видео: -80 мс.
Размер потока: 67,3 Мбайт (7%)

Аудио #2
Идентификатор: 129 (0x81)
Формат: AC-3
Формат/Информация: Audio Coding 3
Расширение режима: CM (complete main)
Продолжительность: 21 м.
Вид битрейта: Постоянный
Битрейт: 384 Кбит/сек
Канал(ы): 6 канала(ов)
Расположение каналов: Front: L C R, Side: L R, LFE
Частота: 48,0 КГц
Битовая глубина: 16 бит
Метод сжатия: С потерями
Задержка видео: -80 мс.
Размер потока: 57,7 Мбайт (6%)

Аудио #3
Идентификатор: 130 (0x82)
Формат: AC-3
Формат/Информация: Audio Coding 3
Расширение режима: CM (complete main)
Продолжительность: 21 м.
Вид битрейта: Постоянный
Битрейт: 384 Кбит/сек
Канал(ы): 6 канала(ов)
Расположение каналов: Front: L C R, Side: L R, LFE
Частота: 48,0 КГц
Битовая глубина: 16 бит
Метод сжатия: С потерями
Задержка видео: -80 мс.
Размер потока: 57,7 Мбайт (6%)

Аудио #4
Идентификатор: 131 (0x83)
Формат: AC-3
Формат/Информация: Audio Coding 3
Расширение режима: CM (complete main)
Продолжительность: 21 м.
Вид битрейта: Постоянный
Битрейт: 192 Кбит/сек
Канал(ы): 2 канала(ов)
Расположение каналов: Front: L R
Частота: 48,0 КГц
Битовая глубина: 16 бит
Метод сжатия: С потерями
Задержка видео: -80 мс.
Размер потока: 28,9 Мбайт (3%)

Текст #1
Идентификатор: 35 (0x23)
Формат: RLE
Формат/Информация: Run-length encoding
Продолжительность: 20 м.
Задержка видео: 2 с. 80 мс.

Текст #2
Идентификатор: 36 (0x24)
Формат: RLE
Формат/Информация: Run-length encoding
Продолжительность: 20 м.
Задержка видео: 2 с. 80 мс.

Текст #3
Идентификатор: 37 (0x25)
Формат: RLE
Формат/Информация: Run-length encoding
Продолжительность: 20 м.
Задержка видео: 2 с. 80 мс.

Текст #4
Идентификатор: 32 (0x20)
Формат: RLE
Формат/Информация: Run-length encoding

Меню


























реклама партнёра


Вернуться к началу
 Профиль Отправить личное сообщение  
 
   Похожие торренты   Автор   Торрент   Размер 
В этой теме нет новых непрочитанных сообщений. Мега-акула против Меха-акулы / Mega Shark vs. Mecha Shark [фантастика, боевик, триллер, 2014] HDRip, Avo

salma3

508 | 24

1.37 ГБ

В этой теме нет новых непрочитанных сообщений. Мега-акула против Меха-акулы / Mega Shark vs. Mecha Shark (Эмиль Эдвин Смит) [фантастика, боевик, триллер, 2014] HDRip, avo

Dracon

0 | 0

1.37 ГБ

В этой теме нет новых непрочитанных сообщений. D-tale - D-tale [2005, Melodic Hard Rock, MP3]

PriZraK

0 | 1

104.72 МБ

В этой теме нет новых непрочитанных сообщений. Агент Коди Бэнкс 2: Пункт назначения - Лондон / Agent Cody Banks 2: Destination London [боевик, приключения, семейный, 2004] DVD9, Dub+Dvo+Sub

salma3

13 | 5

6.46 ГБ

В этой теме нет новых непрочитанных сообщений. История дельфина 2 / Dolphin Tale 2 [Драма, семейный, 2014] HDRip, dub [Звук с TS]

Dracon

208 | 13

1.37 ГБ

В этой теме нет новых непрочитанных сообщений. История дельфина 2 / Dolphin Tale 2 [Драма, семейный, 2014] HDRip, Dub [iTunes]

Dracon

328 | 12

1.46 ГБ

В этой теме нет новых непрочитанных сообщений. История дельфина 2 / Dolphin Tale 2 [Драма, семейный, 2014] WEBRip, Dub [Звук с TS]

Dracon

388 | 9

1.38 ГБ


Начать новую тему Ответить на тему  [ 1 сообщение ] 




Для Мосгорсуда, Роскомнадзора и рекламодателей:: mosgorsud-torrent[собачка]yandex.ru