Торрент файл
скачать торрент магнет ссылка Добавлен: 11 апр 2011, 16:09
Размер: 5.18 ГБ
Сидеров: 8
Личеров: 26
Автор

СообщениеДобавлено: 11 апр 2011, 16:09 

Не в сети
Супермодератор
Аватара пользователя
Дата регистрации:
22 май 2010, 11:03
Возраст: 31
Спасибо: 7509 / 13
Сообщения: 49940
Атлантида 2: Возвращение Майло / Atlantis: Milo's Return



Перевод: Профессиональный (полное дублирование)
Субтитры:Английские, английские (для слабослышащих), французские
Формат: DVD9, DVD Video, MPEG2, AC3
Страна: США
Режиссер: Виктор Кук, Тоби Шелтон, Тэд Стоунс
Жанр: мультфильм, боевик, комедия, приключения, семейный
Продолжительность: 01:17:10
Год выпуска: 2003

В ролях: Джеймс Арнольд Тейлор, Кри Саммер, Джон Махони, Жаклин Обрадорс, Дон Новелло, Кори Бертон, Фил Моррис, Флоренс Стэнли, Фрэнк Уэлкер, Стив Барр

Описание: Мийло, Кидо и команда смелых исследователей Атлантиды возвращаются в новых приключениях, полных ожидания и действия. В течение первой экспедиции Майло и Кида открыли подводное царство, а так же спасли его и всех его обитателей. Теперь опасность подкралась с поверхности воды и отважным героям придется покинуть Атлантиду…


Рейтинг на IMDB: 4.8/10
Рейтинг MPAA: G

Видео: 720x576 (PAL 2,35:1), 25.000 fps, MPEG2 Video, ~8300 kbps avg
Аудио #1:Русский: 48 kHz, Dolby AC3, 3/2 (L,C,R,l,r) + LFE ch, ~448 kbps avg [Профессиональный (полное дублирование)]
Аудио #2:Английский: 48 kHz, AC3, 3/2 (L,C,R,l,r) + LFE ch, ~448 kbps avg [Оригинал]
Аудио #3:Французский: 48 kHz, Dolby AC3, 2 (L,R) ch, ~384 kbps avg


Общее
Полное имя: E:\Atlantis-2\VIDEO_TS\VTS_01_1.VOB
Формат: MPEG-PS
Размер файла: 1024 Мбайт
Продолжительность: 15 м.
Общий поток: 9444 Кбит/сек

Видео
Идентификатор: 224 (0xE0)
Формат: MPEG Video
Версия формата: Version 2
Профиль формата: Main@Main
Параметр BVOP формата: Да
Параметр матрицы формата: По умолчанию
Параметры GOP формата: M=3, N=12
Продолжительность: 15 м.
Вид битрейта: Постоянный
Битрейт: 8300 Кбит/сек
Ширина: 720 пикс.
Высота: 576 пикс.
Соотношение сторон: 2,35:1
Частота кадров: 25,000 кадр/сек
Стандарт вещания: PAL
Цветовое пространство: YUV
Подвыборка цветности: 4:2:0
Битовая глубина: 8 бит
Тип развёртки: Чересстрочная
Порядок развёртки: Верхнее поле первое
Метод сжатия: С потерями
Бит/(Пиксели*Кадры): 0.801
Размер потока: 865 Мбайт (84%)

Аудио #1
Идентификатор: 189 (0xBD)-128 (0x80)
Формат: AC-3
Формат/Информация: Audio Coding 3
Расширение режима: CM (complete main)
Режим смешивания: DVD-Video
Продолжительность: 15 м.
Вид битрейта: Постоянный
Битрейт: 448 Кбит/сек
Канал(ы): 6 канала(ов)
Расположение каналов: Front: L C R, Side: L R, LFE
Частота: 48,0 КГц
Битовая глубина: 16 бит
Метод сжатия: С потерями
Размер потока: 48,6 Мбайт (5%)

Аудио #2
Идентификатор: 189 (0xBD)-129 (0x81)
Формат: AC-3
Формат/Информация: Audio Coding 3
Расширение режима: CM (complete main)
Режим смешивания: DVD-Video
Продолжительность: 15 м.
Вид битрейта: Постоянный
Битрейт: 448 Кбит/сек
Канал(ы): 6 канала(ов)
Расположение каналов: Front: L C R, Side: L R, LFE
Частота: 48,0 КГц
Битовая глубина: 16 бит
Метод сжатия: С потерями
Размер потока: 48,6 Мбайт (5%)

Аудио #3
Идентификатор: 189 (0xBD)-130 (0x82)
Формат: AC-3
Формат/Информация: Audio Coding 3
Расширение режима: CM (complete main)
Режим смешивания: DVD-Video
Продолжительность: 15 м.
Вид битрейта: Постоянный
Битрейт: 384 Кбит/сек
Канал(ы): 6 канала(ов)
Расположение каналов: Front: L C R, Side: L R, LFE
Частота: 48,0 КГц
Битовая глубина: 16 бит
Метод сжатия: С потерями
Размер потока: 41,6 Мбайт (4%)

Текст
Идентификатор: 189 (0xBD)-34 (0x22)
Формат: RLE
Формат/Информация: Run-length encoding
Режим смешивания: DVD-Video

Меню
























реклама партнёра


Вернуться к началу
 Профиль Отправить личное сообщение  
 
   Похожие торренты   Автор   Торрент   Размер 
В этой теме нет новых непрочитанных сообщений. Майло / Bad Milo [ужасы, комедия, 2013] HDRip, Mvo

Dracon

0 | 2

1.37 ГБ

В этой теме нет новых непрочитанных сообщений. Майло / Bad Milo [ужасы, комедия, 2013] BDRip 720p, Mvo

Dracon

7 | 4

5.81 ГБ

В этой теме нет новых непрочитанных сообщений. Звёздные Врата: Атлантида / Stargate: Atlantis [S01-05] [Фантастика, 2004-2009] WEB-DL 720p, Mvo

salma3

30 | 52

131.04 ГБ

В этой теме нет новых непрочитанных сообщений. Атлантида / Atlantis [02x01-11 из 13] [фантастика, приключения, драма, 2014] WEB-DL 720p, Mvo [BaibaKo]

Dracon

2 | 25

15.22 ГБ

В этой теме нет новых непрочитанных сообщений. Атлантида / Atlantis [02x01-11 из 13] [фантастика, приключения, драма, 2014] WEB-DL 1080p, Mvo [BaibaKo]

Dracon

45 | 151

18.89 ГБ

В этой теме нет новых непрочитанных сообщений. Атлантида / Atlantis [02x01-11 из 13] [фантастика, приключения, драма, 2014] WEB-DLRip, Mvo [BaibaKo]

Dracon

40 | 105

6.43 ГБ

В этой теме нет новых непрочитанных сообщений. Звездные врата: Атлантида / Stargate: Atlantis [S04] [Фантастика, боевик, приключения, 2007-2008] BDRip 1080p, Mvo [ТВ3]

salma3

11 | 7

79.5 ГБ


Начать новую тему Ответить на тему  [ 1 сообщение ] 




Для Мосгорсуда, Роскомнадзора и рекламодателей:: mosgorsud-torrent[собачка]yandex.ru