Торрент файл
скачать торрент магнет ссылка Добавлен: 11 апр 2011, 15:47
Размер: 8.75 ГБ
Сидеров: 95
Личеров: 18
Автор

СообщениеДобавлено: 11 апр 2011, 15:47 

Не в сети
Супермодератор
Аватара пользователя
Дата регистрации:
22 май 2010, 11:03
Возраст: 31
Спасибо: 7508 / 13
Сообщения: 49940
Город Тачек [Полная версия, 1-62 серии] / Auto B. Good


Перевод: Профессиональный (полное дублирование)
Субтитры: отсутствуют
Формат: 2xDVD5, DVD Video, MPEG2, AC3
Страна: США
Режиссер: Гари Мейбер
Жанр: Мультфильм, семейный
Продолжительность: 62 серии x ~ 11 мин
Год выпуска: 2003-2009

Описание: Добро пожаловать в чудесный авто-городок! Здесь живут машинки – хорошие друзья. Они собираются вместе, играют и устраивают вечеринки. В этом процветающем местечке для каждого найдется что-нибудь интересное. Вы можете подружиться со спортивным автомобильчиком Джонни и посетить новую мойку на окраине города, или же сходить с Кэли в салон красоты, где ухаживают за каждой деталькой корпуса. А если вам больше нравится проводить время на природе: лучшее место для этого - Мемориальный парк. Здесь молодежь И-Джей и Иззи любят поиграть в футбол. Добро пожаловать! Все что вам понадобится это живое воображение и желание познавать новое! Итак, мальчики и девочки, запускайте двигатели и наслаждайтесь ездой.
«Город тачек» - это красочный и добрый мультфильм, который развивает замечательные качества: смелость, упорство, доброжелательность, ответственность, уважение и многие-многие другие…


Рейтинг на IMDB:8.4/10
Рейтинг на Кинопоиск.RU: 6.75
Рейтинг MPAA: G

Видео: 352 x 576 (1.333) at 25.000 fps, MPEG-2 Video, 7474 Кбит/сек
Аудио: Русский: 48,0 КГц, AC-3 at 192 Кбит/сек, Front: L R [Профессиональный (многоголосый, закадровый)]

Общее
Полное имя: D:\Фильмы\Gorod_tachek_[tfile.ru]\Диск 2\VIDEO_TS\VTS_01_1.VOB
Формат: MPEG-PS
Размер файла: 1024 Мбайт
Продолжительность: 18 м.
Общий поток: 7822 Кбит/сек

Видео
Идентификатор: 224 (0xE0)
Формат: MPEG Video
Версия формата: Version 2
Профиль формата: Main@Main
Параметр BVOP формата: Да
Параметр матрицы формата: По умолчанию
Продолжительность: 18 м.
Вид битрейта: Переменный
Битрейт: 7474 Кбит/сек
Номинальный битрейт: 8000 Кбит/сек
Ширина: 352 пикс.
Высота: 576 пикс.
Соотношение сторон: 4:3
Частота кадров: 25,000 кадр/сек
Стандарт вещания: PAL
Цветовое пространство: YUV
Подвыборка цветности: 4:2:0
Битовая глубина: 8 бит
Тип развёртки: Чересстрочная
Порядок развёртки: Нижнее поле первое
Метод сжатия: С потерями
Бит/(Пиксели*Кадры): 1.475
Размер потока: 978 Мбайт (96%)

Аудио
Идентификатор: 128 (0x80)
Формат: AC-3
Формат/Информация: Audio Coding 3
Расширение режима: CM (complete main)
Продолжительность: 18 м.
Вид битрейта: Постоянный
Битрейт: 192 Кбит/сек
Канал(ы): 2 канала(ов)
Расположение каналов: Front: L R
Частота: 48,0 КГц
Битовая глубина: 16 бит
Метод сжатия: С потерями
Размер потока: 25,1 Мбайт (2%)

01. Майлз спешит на помощь
02.Тайная сила
03.Страна случайностей
04.Всему свое время
05.Отличная фотография
06.Светлая сторона вещей
07.Движение вперед вместе
08.Задира
09.Друзья на высоте
10.Как стать ответственным
11.Красная карточка, чтобы уважали
12.Никаких правил
13.Центр вселенной
14.Навстречу золоту
15.Боязнь сцены
16.В чужих шинах
17.Ярость на дороге
18.Подняться из глубин
19.Как важно не терять головы
20.Иззи и великан
21.Разговоры о войне
22.Цена свободы
23.Нет большей любви
24.Незваные гости
25.Секрет успеха
26.Победный гол
27.Уборка по плану
28.Небесное явление
29.Испытание на зрелость
30.Грубые манеры
31.Покупай до упаду
32.Опасный склон
33.Музыкальные авто-пираты
34.Долой грызунов
35.Коронация тачки года
36.Друзья спешат на помощь
37.Проект: целостность
38.Как изменить обманщиков
39.Кино со спецэффектами
40.Прыжок через Каньон Кобры
41.Истинная храбрость
42.Отважные мечтатели
43.Скрытый талант
44.Вырвать победу
45.Необычный подозреваемый
46.Дело о пропавшей статуе
47.Зарядись энергией
48.Желание делиться
49.Билли и большерогие
50.Дом, милый дом
51.В поисках силы
52.Коробка Изадоры
53.Ярмарка с аттракционами
54. Лаг Нат
55.Ловушка для монстра
56.Полная переделка
57.Установить рекорд
58.Уровень 39
59.Герой вестерна
60.Испуганная машина
61.Комиксы о Коту
62.Машина отлажена и готова



















реклама партнёра


Вернуться к началу
 Профиль Отправить личное сообщение  
 
   Похожие торренты   Автор   Торрент   Размер 
В этой теме нет новых непрочитанных сообщений. Хороший динозавр / The Good Dinosaur (мультфильм, фэнтези, комедия, приключения, семейный, 2015) BDRip 1080p от New-Team & qqss44 | Локализованная версия | Лицензия

marya111

65 | 21

5.75 ГБ

В этой теме нет новых непрочитанных сообщений. Оз: Возвращение в Изумрудный Город / Legends of Oz: Dorothy's Return [мультфильм, мюзикл, семейный, 2013] DVD5, Dub+Sub [лицензия]

Dracon

82 | 30

4.03 ГБ

В этой теме нет новых непрочитанных сообщений. Виктор Цой и группа Кино - Новый мир (полная версия) [Rock, 2014] mp3, 320kb

Dracon

223 | 4

178.02 МБ

В этой теме нет новых непрочитанных сообщений. Они сражались за Родину (Сергей Бондарчук) [Военный, драма, 1975] HDTVRip [Полная версия]

Dracon

80 | 1

2.73 ГБ

В этой теме нет новых непрочитанных сообщений. Красиво с Леной. (полная версия) [2014 г., Homemade,Russian,Blowjob,Straight,Creampie., CamRip]

friizze

27 | 3

102.29 МБ

В этой теме нет новых непрочитанных сообщений. Город отмороженных (Белый город, Замерзший город) / Valkoinen kaupunki (Аку Лоухимиес / Aku Louhimies) [2006г., Финляндия, драма, DVDRip] avo

Alfredovich

2 | 2

1.39 ГБ

В этой теме нет новых непрочитанных сообщений. Кон-Тики / Kon-Tiki (Хоаким Роннинг / Joachim Rønning, Эспен Сандберг / Espen Sandberg) [2012г., Норвегия, приключения, биография, история, BDRip] AVO (полная версия)

Alfredovich

199 | 16

2.18 ГБ


Начать новую тему Ответить на тему  [ 1 сообщение ] 




Для Мосгорсуда, Роскомнадзора и рекламодателей:: mosgorsud-torrent[собачка]yandex.ru