Торрент файл
скачать торрент магнет ссылка Добавлен: 11 апр 2011, 15:47
Размер: 7.79 ГБ
Сидеров: 3
Личеров: 6
Автор

СообщениеДобавлено: 11 апр 2011, 15:47 

Не в сети
Супермодератор
Аватара пользователя
Дата регистрации:
22 май 2010, 11:03
Возраст: 31
Спасибо: 7518 / 13
Сообщения: 49940
Мухнём на Луну [Обычная и 3D версии] / Fly Me to the Moon


Перевод: Профессиональный (полное дублирование)
Субтитры: Отсутствуют
Формат: DVD9, DVD Video, MPEG2, AC3
Страна: США, Бельгия
Режиссер: Бен Стассен
Жанр: мультфильм, приключения, семейный
Продолжительность: 01:19:49
Год выпуска: 2008
В ролях: Базз Олдрин, Эдриен Барбе, Эд Бигли мл., Филип Болден, Кэм Кларк, Тим Карри, Тревор Ганьон, Грант Джордж, Дэвид Гор, Стив Кремер, Кристофер Ллойд, Мими Мэйнард, Скотт Менвилль, Лоррейн Николсон, Роберт Патрик, Келли Рипа, Николлетт Шеридан, Сэнди Сим

Описание: Это мультипликационный фильм, рассказывающий о том, как 3 мушёнка (Nat, I.Q., Scooter) полетели на Луну вместе с американскими космонавтами. В полёте им предстояло преодолеть множество трудностей. Они ничего не сказали другим мухам. О полёте знали только дедушка и личинки. Мухи-матери узнают о задумке в последний момент и летят на космодром для наблюдения. Оказывается, что колорадские жуки задумали помешать возвращению космического аппарата домой, и все мухи (в том числе советские) отправляются на борьбу с ними.

Рейтинг на IMDB: 4.7/10
Рейтинг на Кинопоиск.RU: 4.45
Рейтинг на МРАА: G

Видео: 720 x 576 (1.333) at 25.000 fps, MPEG-2 Video at 6076 Кбит/сек
Аудио: Русский: 48,0 КГц, AC-3 at 448 Кбит/сек, Front: L C R, Side: L R, LFE [Профессиональный (полное дублирование)]

Доп. информация: Бюджет $25 000 000, сборы в мире + $27 595 282 = $41 412 264.Мультипликационный фильм издан в двух версиях.
Одна — обычная, другая — стереоскопическая. В качестве бонуса представлена шутка от "Doodlez".



Общее
Полное имя: D:\Фильмы\Muhnem_na_lunu_[tfile.ru]\VIDEO_TS\VTS_01_1.VOB
Формат: MPEG-PS
Размер файла: 1024 Мбайт
Продолжительность: 21 м.
Общий поток: 6656 Кбит/сек

Видео
Идентификатор: 224 (0xE0)
Формат: MPEG Video
Версия формата: Version 2
Профиль формата: Main@Main
Параметр BVOP формата: Да
Параметр матрицы формата: По умолчанию
Продолжительность: 21 м.
Вид битрейта: Переменный
Битрейт: 6076 Кбит/сек
Номинальный битрейт: 9000 Кбит/сек
Ширина: 720 пикс.
Высота: 576 пикс.
Соотношение сторон: 4:3
Частота кадров: 25,000 кадр/сек
Стандарт вещания: PAL
Цветовое пространство: YUV
Подвыборка цветности: 4:2:0
Битовая глубина: 8 бит
Тип развёртки: Чересстрочная
Порядок развёртки: Нижнее поле первое
Метод сжатия: С потерями
Бит/(Пиксели*Кадры): 0.586
Размер потока: 934 Мбайт (91%)

Аудио
Идентификатор: 128 (0x80)
Формат: AC-3
Формат/Информация: Audio Coding 3
Расширение режима: CM (complete main)
Продолжительность: 21 м.
Вид битрейта: Постоянный
Битрейт: 448 Кбит/сек
Канал(ы): 6 канала(ов)
Расположение каналов: Front: L C R, Side: L R, LFE
Частота: 48,0 КГц
Битовая глубина: 16 бит
Метод сжатия: С потерями
Размер потока: 68,9 Мбайт (7%)















реклама партнёра


Вернуться к началу
 Профиль Отправить личное сообщение  
 
   Похожие торренты   Автор   Торрент   Размер 
В этой теме нет новых непрочитанных сообщений. В поисках Дори / Finding Dory (Мультфильм, комедия, приключения, семейный, 2016) DVD9 | Custom

marya111

29 | 18

6.39 ГБ

В этой теме нет новых непрочитанных сообщений. Как приручить дракона 2 / How to Train Your Dragon 2 [мультфильм, фэнтези, комедия, приключения, семейный, 2014] DVD9, Dub+Sub [лицензия]

Dracon

49 | 2

7.54 ГБ

В этой теме нет новых непрочитанных сообщений. Самолёты / Planes [Мультфильм, комедия, семейный, полнометражный, 2013] DVD9, Dub+Sub [Лицензия]

Dracon

11 | 6

5.99 ГБ

В этой теме нет новых непрочитанных сообщений. Альфа и Омега 5: Семейный отдых [Мультфильм, комедия, приключения, семейный, полнометражный, 2015] HDRip, Dub

Dracon

297 | 16

663.21 МБ

В этой теме нет новых непрочитанных сообщений. Феи: Коллекция / Tinker Bell: Collection (Брэдли Рэймонд, Роберт Ганнавей, Пегги Холмс) [2008-2014, Мультфильм, фэнтези, приключения, семейный, детский, полнометражный, BDRip | Лицензия]

Nickolas3435

271 | 82

8.66 ГБ

В этой теме нет новых непрочитанных сообщений. Кунг-фу Панда:Трилогия / Kung Fu Panda:Trilogy (Марк Осборн, Джон Стивенсон,Алессандро Карлони, Дженнифер Ю) [2008-2016, Мультфильм, боевик, комедия, приключения, семейный , BDRip 1080p] [DD5.1] [Dub Rus , Ukr , Eng]+[Sub Rus , Ukr , Eng][

Враг Нароода

3 | 7

27.41 ГБ

В этой теме нет новых непрочитанных сообщений. Трое из Простоквашино. Сборник мультфильмов (Владимир Попов) [1978, мультфильм, семейный, BDRip, 1080p] / Мультфильмы (HD/BD Video)

marya111

11 | 1

2.62 ГБ


Начать новую тему Ответить на тему  [ 1 сообщение ] 




Для Мосгорсуда, Роскомнадзора и рекламодателей:: mosgorsud-torrent[собачка]yandex.ru