Торрент файл
скачать торрент магнет ссылка Добавлен: 11 апр 2011, 15:46
Размер: 2.17 ГБ
Сидеров: 9
Личеров: 7
Автор

СообщениеДобавлено: 11 апр 2011, 15:46 

Не в сети
Супермодератор
Аватара пользователя
Дата регистрации:
22 май 2010, 11:03
Возраст: 31
Спасибо: 7509 / 13
Сообщения: 49940
Мультипликационное веселое новогоднее приключение (Уроки тетушки Совы)


Перевод: Не требуется
Субтитры: Отсутствуют
Формат: DVD5, DVD Video, MPEG2, AC3
Страна: Россия
Режиссер: Анатолий Валевский
Жанр: Обучающий мультфильм
Продолжительность: 00:42:51
Год выпуска: 2006
В ролях: Творческий коллектив

Описание: Это развлекательно-обучающий диск с мультфильмами в простой и доступной форме с помощью сказочных персонажей расскажет об обычаях и традициях встречи Нового года в разных странах.
Увлекательные уроки тетушки Совы полностью займут внимание Вашего малыша. Развлекаясь с героями мультфильмов, ребенок будет одновременно получать полезные знания, необходимые в его еще начинающейся жизни.


Видео: 720 x 576 (1.333) at 25.000 fps, MPEG-2 Video at 43,1 Мбит/сек
Аудио:Русский: 48,0 КГц, AC-3 at 192 Кбит/сек, Front: L R

В качестве бонуса:
1. Караоке
2. Уроки тетушки совы
Азбука-малышка
География - малышка
Уроки хорошего поведения
Утренняя зарядка
3. Книжка

Общее
Полное имя: D:\Фильмы\Veseloe_novogodnee_prikluchenie_[tfile.ru]\VIDEO_TS\VTS_01_1.VOB
Формат: MPEG-PS
Размер файла: 1024 Мбайт
Продолжительность: 3 м. 14 с.
Общий поток: 44,2 Мбит/сек

Видео
Идентификатор: 224 (0xE0)
Формат: MPEG Video
Версия формата: Version 2
Профиль формата: Main@Main
Параметр BVOP формата: Да
Параметр матрицы формата: По умолчанию
Параметры GOP формата: M=3, N=12
Продолжительность: 3 м. 14 с.
Вид битрейта: Переменный
Битрейт: 43,1 Мбит/сек
Номинальный битрейт: 8000 Кбит/сек
Ширина: 720 пикс.
Высота: 576 пикс.
Соотношение сторон: 4:3
Частота кадров: 25,000 кадр/сек
Стандарт вещания: PAL
Цветовое пространство: YUV
Подвыборка цветности: 4:2:0
Битовая глубина: 8 бит
Тип развёртки: Чересстрочная
Порядок развёртки: Нижнее поле первое
Метод сжатия: С потерями
Бит/(Пиксели*Кадры): 4.160
Размер потока: 999 Мбайт (98%)

Аудио
Идентификатор: 128 (0x80)
Формат: AC-3
Формат/Информация: Audio Coding 3
Расширение режима: CM (complete main)
Продолжительность: 3 м. 14 с.
Вид битрейта: Постоянный
Битрейт: 192 Кбит/сек
Канал(ы): 2 канала(ов)
Расположение каналов: Front: L R
Частота: 48,0 КГц
Битовая глубина: 16 бит
Метод сжатия: С потерями
Задержка видео: -80 мс.
Размер потока: 4,45 Мбайт (0%)





















реклама партнёра


Вернуться к началу
 Профиль Отправить личное сообщение  
 
   Похожие торренты   Автор   Торрент   Размер 
В этой теме нет новых непрочитанных сообщений. Букашки. Приключение в Долине муравьев / Minuscule - La vallée des fourmis perdues [мультфильм, приключения, семейный, 2013] DVD5 [Лицензия]

Dracon

136 | 39

3.69 ГБ

В этой теме нет новых непрочитанных сообщений. Букашки. Приключение в Долине муравьев / Minuscule - La vallée des fourmis perdues [мультфильм, приключения, семейный, 2013] WEB-DL 720p

Dracon

549 | 6

1.15 ГБ

В этой теме нет новых непрочитанных сообщений. Букашки. Приключение в Долине муравьев / Minuscule - La vallée des fourmis perdues[мультфильм, приключения, семейный, 2013] WEB-DLRip

Dracon

234 | 5

701.17 МБ

В этой теме нет новых непрочитанных сообщений. Ну погоди! [01-25 из 25] (Вячеслав Котёночкин, Юрий Бутырин, Владимир Тарасов...) [1969-2006, мультфильм, комедия, семейный, приключения, DVD5]

Nickolas3435

696 | 58

4.36 ГБ

В этой теме нет новых непрочитанных сообщений. Анатолий Кучерена - Время спрута (Анатолий Кучерена) [Детектив, 2015] MP3

Dracon

109 | 5

254.25 МБ

В этой теме нет новых непрочитанных сообщений. Новогоднее настроение [2013 г., Amateur, CamRip]

Dievas

77 | 4

96.8 МБ

В этой теме нет новых непрочитанных сообщений. Новогоднее дежурство [01-02 из 02] (Флюза Фархшатова) [Мелодрама, 2014] IPTVRip

Dracon

528 | 32

1.08 ГБ


Начать новую тему Ответить на тему  [ 1 сообщение ] 




Для Мосгорсуда, Роскомнадзора и рекламодателей:: mosgorsud-torrent[собачка]yandex.ru