Торрент файл
скачать торрент магнет ссылка Добавлен: 11 апр 2011, 15:45
Размер: 4.12 ГБ
Сидеров: 77
Личеров: 11
Автор

СообщениеДобавлено: 11 апр 2011, 15:45 

Не в сети
Супермодератор
Аватара пользователя
Дата регистрации:
22 май 2010, 11:03
Возраст: 31
Спасибо: 7513 / 13
Сообщения: 49940
Чудо остров Чунга-Чанга (Cборник мультфильмов)



Перевод: Не требуется
Субтитры: Отсутствуют
Формат: DVD5, DVD Video, MPEG2, AC3
Страна: СССР
Режиссер: Роман Качанов, Инесса Ковалевская, Лев Атаманов, Ефим Гамбург, Витольд Бордзиловский
Жанр: Мультфильмы
Продолжительность: 01:35:00
Год выпуска: 1970-1978
В ролях: Вячеслав Тихонов, Аида Ведищева, Сергей Филиппов, Анатолий Горохов, Алиса Фрейндлих, Андрей Миронов, Валентина Толкунова, Олег Анофриев, Михаил Боярский, Александр Градский

Содержание:
В сборник Чудо остров Чунга-Чанга вошли 7 мультфильмов:
1. Катерок (1970 г., 10 мин.) Режиссер: Инесса Ковалевская
2. В порту (1975 г., 17 мин.) Режиссер: Инесса Ковалевская
3. Голубой щенок (1976 г., 20 мин.) Режиссер: Ефим Гамбург
4. Аврора (1973 г., 18 мин.) Режиссер: Роман Качанов
5. Как утенок-музыкант стал футболистом (1978 г., 10 мин.) Режиссер: Витольд Бордзиловский
6. Утенок, который не умел играть в футбол (1972 г., 10 мин.) Режиссер: Витольд Бордзиловский
7. Пони бегает по кругу (1977 г., 10 мин.) Режиссер: Лев Атаманов


Видео: 720 x 576 (1.333) at 25.000 fps, MPEG-2 Video at 12,9 Мбит/сек
Аудио: Русский: 48,0 КГц, AC-3 at 192 Кбит/сек, Front: L R

Кинокомпания: Союзмультфильм

Видео
Идентификатор: 224 (0xE0)
Формат: MPEG Video
Версия формата: Version 2
Профиль формата: Main@Main
Параметр BVOP формата: Да
Параметр матрицы формата: По умолчанию
Продолжительность: 10 м.
Вид битрейта: Переменный
Битрейт: 12,9 Мбит/сек
Номинальный битрейт: 8000 Кбит/сек
Ширина: 720 пикс.
Высота: 576 пикс.
Соотношение сторон: 4:3
Частота кадров: 25,000 кадр/сек
Стандарт вещания: PAL
Цветовое пространство: YUV
Подвыборка цветности: 4:2:0
Битовая глубина: 8 бит
Тип развёртки: Чересстрочная
Порядок развёртки: Нижнее поле первое
Метод сжатия: С потерями
Бит/(Пиксели*Кадры): 1.243
Размер потока: 966 Мбайт (97%)
Библиотека кодирования: (c) 1998-2007 Womble Multimedia, Inc. / MPEG Video Wizard (12/2007) / Mar 31 2008

Аудио
Идентификатор: 128 (0x80)
Формат: AC-3
Формат/Информация: Audio Coding 3
Расширение режима: CM (complete main)
Продолжительность: 10 м.
Вид битрейта: Постоянный
Битрейт: 192 Кбит/сек
Канал(ы): 2 канала(ов)
Расположение каналов: Front: L R
Частота: 48,0 КГц
Битовая глубина: 16 бит
Метод сжатия: С потерями
Размер потока: 14,4 Мбайт (1%)

















реклама партнёра


Вернуться к началу
 Профиль Отправить личное сообщение  
 
   Похожие торренты   Автор   Торрент   Размер 
В этой теме нет новых непрочитанных сообщений. Советские мультфильмы - сборник (Александр Иванов, Витольд Бордзиловский, Геннадий Сокольский...) [мультфильмы, 1930-1980] DVDRip

Dracon

64 | 62

144.69 ГБ

В этой теме нет новых непрочитанных сообщений. Гена-Бетон (Роман Качанов) [Комедия, 2014] WebRip

Dracon

1 | 0

750.64 МБ

В этой теме нет новых непрочитанных сообщений. Гена-Бетон (Роман Качанов) [Комедия, 2014] WebRip

Dracon

3 | 0

1.37 ГБ

В этой теме нет новых непрочитанных сообщений. Гена-Бетон (Роман Качанов) [Комедия, 2014] WebRip 720p

Dracon

520 | 5

1.25 ГБ

В этой теме нет новых непрочитанных сообщений. Вкус Америки (Ефим Грибов) [драма, 2014] WEB-DLRip

Dracon

0 | 0

1.37 ГБ

В этой теме нет новых непрочитанных сообщений. Вкус Америки (Ефим Грибов) [драма, 2014] WEB-DL 1080p

Dracon

2 | 4

2.95 ГБ

В этой теме нет новых непрочитанных сообщений. Чудо / Miraculum [драма, 2014] HDRip, avo

Dracon

155 | 9

1.46 ГБ


Начать новую тему Ответить на тему  [ 1 сообщение ] 




Для Мосгорсуда, Роскомнадзора и рекламодателей:: mosgorsud-torrent[собачка]yandex.ru