Торрент файл
скачать торрент магнет ссылка Добавлен: 11 апр 2011, 15:45
Размер: 4.38 ГБ
Сидеров: 40
Личеров: 6
Автор

СообщениеДобавлено: 11 апр 2011, 15:45 

Не в сети
Супермодератор
Аватара пользователя
Дата регистрации:
22 май 2010, 11:03
Возраст: 31
Спасибо: 7513 / 13
Сообщения: 49940
История игрушек: Большой побег / Toy story 3


Перевод: Профессиональный (полное дублирование)
Субтитры:Русские, английские
Формат:DVD5, DVD Video, MPEG2, AC3
Страна:США.
Режиссер:Ли Анкрич
Жанр:Мультфильм, фэнтези, комедия, приключения, семейный.
Продолжительность:01:42:33
Год выпуска:2010

В ролях:Том Хэнкс,Тим Аллен,Джоан Кьюсак,Нед Битти,Дон Риклз,Майкл Китон,Уоллес Шоун,Джон Ратценбергер,Эстелль Харрис,Джон Моррис.

Описание: Энди почти 18 лет, ему остаётся 3 дня до отправки в колледж, в то время как его игрушки, в том числе Вуди и Базз Лайтер, гадают о своём будущем.

Куда забросит их судьба? На чердак, на свалку или, может быть, в детский сад «Солнышко»?

События развиваются в самом неожиданном направлении, и приключения полюбившихся героев продолжаются!


Рейтинг на Кинопоиск.RU:8.493
Рейтинг на IMDB:8.9/10
Рейтинг MPAA:G

Видео: 720x576 (PAL 16:9), 25,000 fps, MPEG-2 Video, ~ 9800 kbps avg
Аудио: Русский: 48kHz, Dolby AC3, 6(ch), ~384 kbps avg [Профессиональный (полное дублирование)]
Аудио: Английский: 48kHz, Dolby AC3, 6(ch), ~384 kbps avg [Оригинал]


Общее
Полное имя: L:\Toy Story 3\VIDEO_TS\VTS_01_1.VOB
Формат: MPEG-PS
Размер файла: 1024 Мбайт
Продолжительность: 22 м.
Общий поток: 6355 Кбит/сек

Видео
Идентификатор: 224 (0xE0)
Формат: MPEG Video
Версия формата: Version 2
Профиль формата: Main@Main
Параметр BVOP формата: Да
Параметр матрицы формата: По умолчанию
Параметры GOP формата: M=3, N=12
Продолжительность: 22 м.
Вид битрейта: Переменный
Битрейт: 5460 Кбит/сек
Номинальный битрейт: 9800 Кбит/сек
Ширина: 720 пикс.
Высота: 576 пикс.
Соотношение сторон: 16:9
Частота кадров: 25,000 кадр/сек
Стандарт вещания: PAL
Цветовое пространство: YUV
Подвыборка цветности: 4:2:0
Битовая глубина: 8 бит
Тип развёртки: Прогрессивная
Порядок развёртки: Верхнее поле первое
Метод сжатия: С потерями
Бит/(Пиксели*Кадры): 0.527
Размер потока: 880 Мбайт (86%)

Аудио #1
Идентификатор: 128 (0x80)
Формат: AC-3
Формат/Информация: Audio Coding 3
Расширение режима: CM (complete main)
Продолжительность: 22 м.
Вид битрейта: Постоянный
Битрейт: 384 Кбит/сек
Канал(ы): 6 канала(ов)
Расположение каналов: Front: L C R, Side: L R, LFE
Частота: 48,0 КГц
Битовая глубина: 16 бит
Метод сжатия: С потерями
Размер потока: 61,9 Мбайт (6%)

Аудио #2
Идентификатор: 129 (0x81)
Формат: AC-3
Формат/Информация: Audio Coding 3
Расширение режима: CM (complete main)
Продолжительность: 22 м.
Вид битрейта: Постоянный
Битрейт: 384 Кбит/сек
Канал(ы): 6 канала(ов)
Расположение каналов: Front: L C R, Side: L R, LFE
Частота: 48,0 КГц
Битовая глубина: 16 бит
Метод сжатия: С потерями
Размер потока: 61,9 Мбайт (6%)

Текст #1
Идентификатор: 32 (0x20)
Формат: RLE
Формат/Информация: Run-length encoding

Текст #2
Идентификатор: 33 (0x21)
Формат: RLE
Формат/Информация: Run-length encoding

Текст #3
Идентификатор: 34 (0x22)
Формат: RLE
Формат/Информация: Run-length encoding

Текст #4
Идентификатор: 35 (0x23)
Формат: RLE
Формат/Информация: Run-length encoding

Меню




















реклама партнёра


Вернуться к началу
 Профиль Отправить личное сообщение  
 
   Похожие торренты   Автор   Торрент   Размер 
В этой теме нет новых непрочитанных сообщений. Мы вернулись! История динозавра / We're Back! A Dinosaur's Story [мультфильм, фэнтези, приключения, семейный, 1993] BDRip 720p, Mvo

salma3

21 | 10

7.62 ГБ

В этой теме нет новых непрочитанных сообщений. История Игрушек: То, что забыто / Toy Story That Time Forgot [Короткометражный анимационный фильм, 2014] HDTVRip, avo

Dracon

549 | 6

325.33 МБ

В этой теме нет новых непрочитанных сообщений. Бесконечная история 2. Новая глава / The Neverending Story II. The Next Chapter [Фэнтези, Приключения, 1990] HDRip 1080p, Dub

salma3

45 | 4

3.36 ГБ

В этой теме нет новых непрочитанных сообщений. Лос-Анджелесская история / L.A. Story [комедия, мелодрама, драма, фэнтези, 1991] BDRip 720p, Mvo+2Avo+Sub

salma3

24 | 2

5.43 ГБ

В этой теме нет новых непрочитанных сообщений. Дом / Home (Тим Джонсон) [мультфильм, фантастика, фэнтези, комедия, приключения, семейный, 2015] DVD5, Dub+Sub [Лицензия]

Dracon

3 | 0

4.36 ГБ

В этой теме нет новых непрочитанных сообщений. Рапунцель: Запутанная история / Tangled [мультфильм, мюзикл, фэнтези, мелодрама, комедия, семейный, 2010] BDRip-AVC, Dub

salma3

39 | 3

1.46 ГБ

В этой теме нет новых непрочитанных сообщений. История царства животных / The Shape of Life. The Story of the Animal Kingdom (1-8 серии из 8-ми) [документальный, научно-популярный, история, океан, флора, фауна, 2010] SATRip, Dub

salma3

23 | 7

2.92 ГБ


Начать новую тему Ответить на тему  [ 1 сообщение ] 




Для Мосгорсуда, Роскомнадзора и рекламодателей:: mosgorsud-torrent[собачка]yandex.ru