Торрент файл
скачать торрент магнет ссылка Добавлен: 11 апр 2011, 15:45
Размер: 4.28 ГБ
Сидеров: 16
Личеров: 6
Автор

СообщениеДобавлено: 11 апр 2011, 15:45 

Не в сети
Супермодератор
Аватара пользователя
Дата регистрации:
22 май 2010, 11:03
Возраст: 31
Спасибо: 7509 / 13
Сообщения: 49940
Полёт драконов / The Flight of Dragons


Год выпуска: 1982
Страна: США
Жанр: Фэнтези, приключения

Продолжительность: 01:35:19

Перевод:
1) Авторский (одноголосый закадровый) - Леонид Володарский
2) Авторский (одноголосый закадровый) - Александр Фертман

Субтитры:Русские отключаемые (VobSub)

Режиссер: Жуль Басс, Артур Ранкин
В ролях:
Джон Риттер, Боб МакФедден, Дон МессикДжеймс, Грегори Джеймс, Эрл Джонс, Гарри Морган, Александра Стоддарт

Описание:
Полнометражная анимация по мотивам романа Г. Диксона «Дракон и Джордж».
Удивительная во всех смыслах этого слова история о магии и науке, о людях, о драконах, о магах, о сказочном мире, который разрушается под давлением алчности, жадности и той самой логики и рациональности, которые засели у нас в генах.
Чтобы поддержать баланс добра и зла нужно создать мир, в котором соприкасались бы магия и наука и дополняли друг друга, так думает маг Каролинус и его два брата.
Но у третьего брата Омодона, повелителя тёмной магии совсем другие планы на этот счёт...


Дополнительная информация:DVDRip

Сингл "Flight of dragons"Партия блок флейт на тему "Flight of dragons"

Рейтинг на IMDB: 7.7/10

Формат: DVD5, DVD Video, MPEG2, AC3

Видео: MPEG2 Video, 720x480 (4:3), 29.97fps, 8700kbps
Аудио:
1) Dolby AC3, 48000Hz stereo, 2 ch, 192 kbps [Russian, Леонид Володарский (По умолчанию)]
2) Dolby AC3, 48000Hz stereo, 2 ch, 192 kbps [Russian, Александр Фертман]
3) Dolby AC3, 48000Hz stereo, 2 ch, 192 kbps [English, Английский]


Flight of dragons soar in the purple light
In the sky or in my mind
Flight of dragons sail past reality
Leave illusion behind

Is it the past I see
When I look up to the heavens
Believing in the magic
That I know could never be

I want to go where they are going
Into the world they've been
Can I open up my mind enough to see

Flight of dragons, heavenly argosies
Catch the wind, rise out of sight
Flight of dragons, pilots of fantasy
In the sky or in my mind

Flight of dragons
Flight of dragons
[/font]




General
Complete name: C:\Закачки\Мультфильмы\The_Flight_of_Dragons_[tfile.ru]\VIDEO_TS\VTS_01_1.VOB
Format: MPEG-PS
File size: 1 000 MiB
Duration: 21mn 41s
Overall bit rate: 6 445 Kbps

Video
ID: 224 (0xE0)
Format: MPEG Video
Format version: Version 2
Format profile: Main@Main
Format settings, BVOP: Yes
Format settings, Matrix: Default
Format settings, GOP: M=3, N=12
Duration: 21mn 41s
Bit rate mode: Variable
Bit rate: 5 741 Kbps
Nominal bit rate: 8 700 Kbps
Width: 720 pixels
Height: 480 pixels
Display aspect ratio: 4:3
Frame rate: 23.976 fps
Standard: NTSC
Color space: YUV
Chroma subsampling: 4:2:0
Bit depth: 8 bits
Scan type: Progressive
Scan order: 2:3 Pulldown
Bits/(Pixel*Frame): 0.693
Stream size: 891 MiB (89%)

Audio #1
ID: 128 (0x80)
Format: AC-3
Format/Info: Audio Coding 3
Mode extension: CM (complete main)
Duration: 21mn 41s
Bit rate mode: Constant
Bit rate: 192 Kbps
Channel(s): 2 channels
Channel positions: Front: L R
Sampling rate: 48.0 KHz
Stream size: 29.8 MiB (3%)

Audio #2
ID: 129 (0x81)
Format: AC-3
Format/Info: Audio Coding 3
Mode extension: CM (complete main)
Duration: 21mn 41s
Bit rate mode: Constant
Bit rate: 192 Kbps
Channel(s): 2 channels
Channel positions: Front: L R
Sampling rate: 48.0 KHz
Stream size: 29.8 MiB (3%)

Audio #3
ID: 130 (0x82)
Format: AC-3
Format/Info: Audio Coding 3
Mode extension: CM (complete main)
Duration: 21mn 41s
Bit rate mode: Constant
Bit rate: 192 Kbps
Channel(s): 2 channels
Channel positions: Front: L R
Sampling rate: 48.0 KHz
Stream size: 29.8 MiB (3%)

Text
ID: 32 (0x20)
Format: RLE
Format/Info: Run-length encoding

Menu











реклама партнёра


Вернуться к началу
 Профиль Отправить личное сообщение  
 
   Похожие торренты   Автор   Торрент   Размер 
В этой теме нет новых непрочитанных сообщений. Подземелье драконов / Dungeons & Dragons [фэнтези, приключения, 2000] BDRip 1080, Dub+Sub

salma3

25 | 2

7.63 ГБ

В этой теме нет новых непрочитанных сообщений. Полет аистов / Flight of the Storks [боевик, криминал, детектив, 2012] SATRip, Mvo

salma3

16 | 1

1.56 ГБ

В этой теме нет новых непрочитанных сообщений. Chasing Dragons – Take Flight for a Firefight [2012, Modern Hard Rock,Alternative Rock, MP3]

PriZraK

0 | 1

92.71 МБ

В этой теме нет новых непрочитанных сообщений. Драконы: Защитники Олуха / Dragons: Defenders of Berk [S02x01-14 из 20] (Энтони Белл, Джон Санфорд, Луи Дел Кармен) [2013, фэнтези, приключения, комедия, семейный, WEB-DLRip]

Nickolas3435

141 | 68

4.41 ГБ

В этой теме нет новых непрочитанных сообщений. Поглощён Драконы: Защитники Олуха / Dragons: Defenders of Berk [S02x01-09 из 20] ( Энтони Белл, Джон Санфорд, Луи Дел Кармен) [2013, фэнтези, приключения, комедия, семейный, WEB-DLRip] Данный торрент является блокированным, причина: поглощённый торрент

Nickolas3435

818 | 106

2.84 ГБ

В этой теме нет новых непрочитанных сообщений. Бой Драконов / Битва Драконов / Dragonfight [Фантастика, боевик, 1990] DVDRip, Dvo

salma3

5 | 3

1.33 ГБ

В этой теме нет новых непрочитанных сообщений. Меч варваров / Sangraal la spada di fuoco [фэнтези, боевик, приключения, 1982] DVDRip, Dvo

salma3

42 | 14

1.36 ГБ


Начать новую тему Ответить на тему  [ 1 сообщение ] 




Для Мосгорсуда, Роскомнадзора и рекламодателей:: mosgorsud-torrent[собачка]yandex.ru