Торрент файл
скачать торрент магнет ссылка Добавлен: 11 апр 2011, 13:04
Размер: 3.23 ГБ
Сидеров: 2
Личеров: 7
Автор

СообщениеДобавлено: 11 апр 2011, 13:04 

Не в сети
Супермодератор
Аватара пользователя
Дата регистрации:
22 май 2010, 11:03
Возраст: 32
Спасибо: 7690 / 13
Сообщения: 49871
Последний из Могикан / The Last of the Mohicans


Перевод: Профессиональный (двухголосый), cубтитры: отсутствуют
Формат: DVD5, DVD Video, MPEG2, AC3
Страна: Италия
Режиссер: Giuseppe Lagana
Жанр: Мультфильм
Продолжительность: 1:32:50
Год выпуска: 2004-2007
Описание: Беспощадная война разгорелась за право колонизации Америки. Хитрые французы одерживают победу за победой, коварные британцы не хотят сдавать позиции. Леса наводняют множественные племена краснокожих, примкнувших к различным воюющим армиям. И среди кровавых схваток, проворно обходя засады и ловушки, зоркий охотник Соколиный Глаз и разумный главарь Могикан Чингачгук водят 2-ух молодых женщин к их папе, полковнику британских войск... Известный роман Фенимора Купера получил новое дыхание в классном мульте - "Заключительный из могикан".
Рейтинг MPAA: G

Доп. информация:
Серии:
1. Война
2. Магуа
3. Английский путешественник
4. Оскар

Мультфильм представлен на русском и английском языках ( сменить язык в меню "установки")

Торрент-файл обновлен, рекомендуется скачать заново!
Раздаю в среднем со скоростью 110кб/с
Format: MPEG-PS
Overall bit rate: 6 251 Kbps

Video
ID: 224 (0xE0)
Format: MPEG Video
Format version: Version 2
Format profile: Main@Main
Format settings, BVOP: Yes
Format settings, Matrix: Default
Duration: 22mn 52s
Bit rate mode: Constant
Bit rate: 5 500 Kbps
Width: 720 pixels
Height: 576 pixels
Display aspect ratio: 4:3
Frame rate: 25.000 fps
Standard: PAL
Color space: YUV
Chroma subsampling: 4:2:0
Bit depth: 8 bits
Scan type: Interlaced
Scan order: Bottom Field First
Bits/(Pixel*Frame): 0.530
Stream size: 898 MiB (88%)

Audio #1
ID: 128 (0x80)
Format: AC-3
Format/Info: Audio Coding 3
Mode extension: CM (complete main)
Duration: 22mn 51s
Bit rate mode: Constant
Bit rate: 448 Kbps
Channel(s): 6 channels
Channel positions: Front: L C R, Side: L R, LFE
Sampling rate: 48.0 KHz
Video delay: -256ms
Stream size: 73.2 MiB (7%)

Audio #2
ID: 129 (0x81)
Format: AC-3
Format/Info: Audio Coding 3
Mode extension: CM (complete main)
Duration: 22mn 51s
Bit rate mode: Constant
Bit rate: 192 Kbps
Channel(s): 2 channels
Channel positions: Front: L R
Sampling rate: 48.0 KHz
Video delay: -192ms
Stream size: 31.4 MiB (3%)












реклама партнёра


Вернуться к началу
 Профиль Отправить личное сообщение  
 
   Похожие торренты   Автор   Торрент   Размер 
В этой теме нет новых непрочитанных сообщений. Последний из могикан / The Last of the Mohicans [боевик, драма, мелодрама, приключения, военный, 1992] Blu-ray 1080p, Dub

salma3

39 | 43

43.7 ГБ

В этой теме нет новых непрочитанных сообщений. Последний из могикан / The Last of the Mohicans [Боевик, драма, мелодрама, 1992] BD-Remux 1080p, Dub [Director's Definitive Cut]

salma3

31 | 41

34.13 ГБ

В этой теме нет новых непрочитанных сообщений. Последний из могикан / The Last of the Mohicans [Боевик, драма, мелодрама, 1992] BDRip 1080p, Dub [Director's Definitive Cut]

salma3

77 | 15

13.87 ГБ

В этой теме нет новых непрочитанных сообщений. Последний из могикан / Uncas, el fin de una raza [приключения, вестерн, 1965] DVDRip, Avo

salma3

60 | 7

1.36 ГБ

В этой теме нет новых непрочитанных сообщений. Забавные повадки девушек ("Последний из Могикан") (Алексей Меняйлов) [2013, мелодрама, детектив, приключения, WEBRip]

vairgin

22 | 8

232.89 МБ

В этой теме нет новых непрочитанных сообщений. Последний кадр / The Last Shot [комедия, 2004] HDTVRip 720p, Mvo+Sub

salma3

124 | 15

3.27 ГБ

В этой теме нет новых непрочитанных сообщений. Последний танец / One Last Dance [боевик, мелодрама, комедия, криминал, 2006] DVD5, Mvo+Sub

salma3

31 | 4

4.02 ГБ


Начать новую тему Ответить на тему  [ 1 сообщение ] 




Для Мосгорсуда, Роскомнадзора и рекламодателей:: mosgorsud-torrent[собачка]yandex.ru